Все раздачи Раздачи по тегам Правила Информация Контакты

Малыш на драйве / Baby Driver (2017) BDRip 720p | iPad | Лицензия

Малыш на драйве / Baby Driver (2017) BDRip 720p | iPad | Лицензия

Год выпуска: 2017
Оригинальное название: Baby Driver
Страна: Великобритания, США
Жанр: боевик, триллер, криминал
Возраст: 18+
Режиссер: Эдгар Райт
В ролях: Энсел Элгорт, Кевин Спейси, Лили Джеймс, Эйса Гонсалес, Джон Хэмм, Джейми Фокс, Джон Бернтал, Фли, Лэнни Джун, Мика Ховард
Описание: Молодой парень по прозвищу Малыш обожает стильную музыку, быструю езду и адреналин в крови. Вся его жизнь — это сплошные погони и перестрелки, ведь он работает водителем, который помогает бандитам скрыться с места преступления. Однажды он по-настоящему влюбляется и решает выйти из игры, но сначала ему предстоит выполнить еще одно задание, которое вполне может оказаться последним в его жизни.
Продолжительность: 01:52:39
Перевод: Дублированный [Лицензия]
Оригинальная дорожка: есть
Автор рипа:
Качество видео: BDRip 720p Исходник: Blu-Ray Remux (1080p) Формат: mp4
Видео кодек: MPEG-4 AVC Аудио кодек: AAC
Видео: 1280x536 (2.40:1) at 23.976 fps, AVC at 2 649 kbps avg, 0.161 bit/pixel
Аудио №1 Rus: 48.0 KHz, AAC, 2 ch, 128.0 Kbps
Аудио №2 Eng: 48.0 KHz, AAC, 2 ch, 128.0 Kbps
Субтитры: русские (форсированные, полные)
Навигация по главам: есть
Размер: 2.30 GiB
Log x264
avs [info]: 1280x536p 1:1 @ 24000/1001 fps (cfr)
x264 [info]: using SAR=1/1
x264 [info]: using cpu capabilities: MMX2 SSE2Fast SSSE3 Cache64
x264 [info]: profile High, level 4.1
x264 [info]: frame I:2004 Avg QP:16.50 size: 92537
x264 [info]: frame P:36251 Avg QP:19.68 size: 26536
x264 [info]: frame B:123817 Avg QP:21.10 size: 8813
x264 [info]: consecutive B-frames: 2.9% 2.9% 6.5% 25.7% 17.0% 35.9% 9.0%
x264 [info]: mb I I16..4: 5.4% 79.7% 15.0%
x264 [info]: mb P I16..4: 2.5% 11.9% 1.6% P16..4: 41.6% 23.2% 13.0% 0.0% 0.0% skip: 6.2%
x264 [info]: mb B I16..4: 0.2% 1.0% 0.1% B16..8: 44.0% 8.5% 1.6% direct: 5.7% skip:38.9% L0:44.8% L1:47.9% BI: 7.3%
x264 [info]: 8x8 transform intra:75.7% inter:71.9%
x264 [info]: coded y,uvDC,uvAC intra: 74.6% 89.9% 67.3% inter: 22.7% 35.6% 6.6%
x264 [info]: i16 v,h,dc,p: 32% 25% 4% 39%
x264 [info]: i8 v,h,dc,ddl,ddr,vr,hd,vl,hu: 18% 20% 17% 5% 8% 8% 9% 7% 8%
x264 [info]: i4 v,h,dc,ddl,ddr,vr,hd,vl,hu: 22% 24% 11% 5% 9% 8% 9% 6% 6%
x264 [info]: i8c dc,h,v,p: 46% 23% 19% 13%
x264 [info]: Weighted P-Frames: Y:3.6% UV:2.3%
x264 [info]: ref P L0: 48.1% 12.5% 17.2% 6.2% 5.4% 3.6% 3.4% 1.7% 1.8% 0.1% 0.0%
x264 [info]: ref B L0: 75.2% 11.0% 5.8% 2.8% 2.0% 1.7% 1.0% 0.3%
x264 [info]: ref B L1: 94.3% 5.7%
x264 [info]: kb/s:2649.25
encoded 162072 frames, 1.71 fps, 2649.25 kb/s

MI
General
Complete name : ...Malysh_na_drajve_2017_KinoGadget.mp4
Format : MPEG-4
Format profile : Base Media
Codec ID : isom (isom)
File size : 2.30 GiB
Duration : 1 h 52 min
Overall bit rate mode : Variable
Overall bit rate : 2 917 kb/s
Movie name : Малыш на драйве | KinoGadget
Performer : Эдгар Райт
Director : Эдгар Райт
Actor : Энсел Элгорт / Джон Бернтал / Джон Хэмм / Эйса Гонсалес / Лили Джеймс / Морган Браун / Кевин Спейси / С.Дж. Джонс
Screenplay by : Эдгар Райт
Producer : Тим Беван / Джеймс Биддл / Лиза Чейсин
Genre : Action, Crime, Thriller
ContentType : Short Film
Recorded date : 2017
Encoded date : UTC 2017-11-12 19:57:32
Tagged date : UTC 2017-11-12 20:10:24
Cover : Yes
ContentRating : mpaa|R|400|
LongDeion : Молодой парень по прозвищу Малыш обожает стильную музыку, быструю езду и адреналин в крови. Вся его жизнь — это сплошные погони и перестрелки, ведь он работает водителем, который помогает бандитам скрыться с места преступления. Однажды он по-настоящему влюбляется и решает выйти из игры, но сначала ему предстоит выполнить еще одно задание, которое вполне может оказаться последним в его жизни.
HDVideo : Yes
Video
ID : 1
Format : AVC
Format/Info : Advanced Video Codec
Format profile : High@L4.1
Format settings, CABAC : Yes
Format settings, ReFrames : 9 frames
Codec ID : avc1
Codec ID/Info : Advanced Video Coding
Duration : 1 h 52 min
Bit rate : 2 649 kb/s
Maximum bit rate : 11.6 Mb/s
Width : 1 280 pixels
Height : 536 pixels
Display aspect ratio : 2.40:1
Frame rate mode : Constant
Frame rate : 23.976 (24000/1001) FPS
Color space : YUV
Chroma subsampling : 4:2:0
Bit depth : 8 bits
Scan type : Progressive
Bits/(Pixel*Frame) : 0.161
Stream size : 2.08 GiB (91%)
Writing library : x264 core 148 r2744 b97ae06
Encoding settings : cabac=1 / ref=9 / deblock=1:-2:-1 / analyse=0x3:0x113 / me=umh / subme=7 / psy=1 / psy_rd=1.00:0.00 / mixed_ref=1 / me_range=32 / chroma_me=1 / trellis=2 / 8x8dct=1 / cqm=0 / deadzone=21,11 / fast_pskip=0 / chroma_qp_offset=-2 / threads=3 / lookahead_threads=1 / sliced_threads=0 / nr=0 / decimate=1 / interlaced=0 / bluray_compat=0 / constrained_intra=0 / bframes=6 / b_pyramid=2 / b_adapt=2 / b_bias=0 / direct=1 / weightb=1 / open_gop=0 / weightp=2 / keyint=250 / keyint_min=25 / scenecut=40 / intra_refresh=0 / rc_lookahead=60 / rc=crf / mbtree=1 / crf=19.0 / qcomp=0.60 / qpmin=0 / qpmax=69 / qpstep=4 / vbv_maxrate=62500 / vbv_bufsize=78125 / crf_max=0.0 / nal_hrd=none / filler=0 / ip_ratio=1.40 / aq=1:1.00
Encoded date : UTC 2017-11-12 19:20:16
Tagged date : UTC 2017-11-12 19:59:25
Audio #1
ID : 2
Format : AAC
Format/Info : Advanced Audio Codec
Format profile : LC
Codec ID : 40
Duration : 1 h 52 min
Bit rate mode : Variable
Bit rate : 128 kb/s
Maximum bit rate : 135 kb/s
Channel(s) : 2 channels
Channel positions : Front: L R
Sampling rate : 48.0 kHz
Frame rate : 46.875 FPS (1024 spf)
Compression mode : Lossy
Stream size : 103 MiB (4%)
Language : Russian
Encoded date : UTC 2017-11-12 19:27:36
Tagged date : UTC 2017-11-12 19:59:25
Audio #2
ID : 3
Format : AAC
Format/Info : Advanced Audio Codec
Format profile : LC
Codec ID : 40
Duration : 1 h 52 min
Bit rate mode : Variable
Bit rate : 128 kb/s
Maximum bit rate : 135 kb/s
Channel(s) : 2 channels
Channel positions : Front: L R
Sampling rate : 48.0 kHz
Frame rate : 46.875 FPS (1024 spf)
Compression mode : Lossy
Stream size : 103 MiB (4%)
Language : English
Encoded date : UTC 2017-11-12 19:36:48
Tagged date : UTC 2017-11-12 19:59:25
Text #1
ID : 4
Format : Timed Text
Codec ID : tx3g
Duration : 1 h 52 min
Bit rate mode : Variable
Bit rate : 2 b/s
Stream size : 1.70 KiB (0%)
Language : Russian
Forced : No
Encoded date : UTC 2017-11-12 19:59:25
Tagged date : UTC 2017-11-12 19:59:25
Text #2
ID : 5
Format : Timed Text
Codec ID : tx3g
Duration : 1 h 52 min
Bit rate mode : Variable
Bit rate : 107 b/s
Stream size : 88.6 KiB (0%)
Language : Russian
Forced : No
Encoded date : UTC 2017-11-12 19:59:25
Tagged date : UTC 2017-11-12 19:59:25
Menu
00:00:00.000 : 00:00:00.000
00:09:11.050 : 00:09:11.050
00:13:30.476 : 00:13:30.476
00:20:58.174 : 00:20:58.174
00:25:17.599 : 00:25:17.599
00:33:07.903 : 00:33:07.903
00:43:43.246 : 00:43:43.246
00:48:15.643 : 00:48:15.643
00:53:39.550 : 00:53:39.550
00:58:51.903 : 00:58:51.903
01:05:23.545 : 01:05:23.545
01:11:34.081 : 01:11:34.081
01:19:17.002 : 01:19:17.002
01:30:30.675 : 01:30:30.675
01:38:04.170 : 01:38:04.170
01:43:30.413 : 01:43:30.413

Скриншоты


Данный рип предназначен для просмотра на мобильных гаджетах с поддержкой формата mp4
Автор Bot
Категория Зарубежные фильмы
InfoHash 001F24F6F4368E8E096FF712B41E60252AFA24F1
Файлы (1)
Показать файлы
Трекера
Показать трекера
Похожие раздачи

    Нет комментариев

Войти на сайт

Статистика

  • Всего торрентов: 86180
  • Объёмом: 510.9 Тб
  • Сидов: 2612473
  • Личеров: 162106