Все раздачи Раздачи по тегам Правила Информация Контакты

Печки - лавочки (1972) HDTVRip-AVC

Печки - лавочки (1972) HDTVRip-AVC

Информация о фильме
Оригинальное название: Печки - лавочки
Год выхода: 1972
Жанр: Комедия
Режиссер: Василий Шукшин
В ролях: Василий Шукшин, Лидия Федосеева-Шукшина, Всеволод Санаев, Георгий Бурков, Зиновий Гердт, Наталья Гвоздикова, Мария Шукшина, Ольга Шукшина, Иван Рыжов, Станислав Любшин, Вадим Захарченко, Елизавета Уварова, Любовь Мышева, Любовь Соколова, Виктор Филиппов, Алексей Локтев, Юрий Филимонов, Вадим Спиридонов, Валентина Куценко, Борис Марков, Людмила Зайцева, Ксения Минина, Елена Санаева, Пантелеймон Крымов, Никита Астахов, Леонид Юхин, Анатолий Горбенко, Светлана Скрипкина, Фёдор Ершов-Тилилицкий, Анатолий Заболоцкий, Леонид Енгибаров
О фильме:
История о путешествии к южному морю семейной пары из далекого алтайского села. Супруги впервые в жизни едут в отпуск по выделенной профкомом путевке, да еще в отдельном купе! Дорожные приключения и ритм новой жизни увлекают их, но и среди красот южной природы не могут они забыть о родных местах и близких людях, которые ждут их возвращения.

Выпущено: СССР, Киностудия им. М. Горького
Продолжительность: 01:35:54
Язык: Русский
Файл
Кодек: H.264
Качество: HDTVRip (AVC)
Видео: MPEG-4 AVC, 1015 Кбит/с, 720x306
Звук: AАС, 2 ch, 72 Кбит/с
MediaInfo
Формат : Matroska
Версия формата : Version 4 / Version 2
Размер файла : 747 Мбайт
Продолжительность : 1 ч. 35 м.
Общий поток : 1089 Кбит/сек
Название фильма : Pechki - lavochki.1972.x264.HDTVRip.(AVC).ExKinoRay
Дата кодирования : UTC 2017-11-13 07:44:49
Программа кодирования : mkvmerge v17.0.0 ('Be Ur Friend') 64-bit
Библиотека кодирования : libebml v1.3.5 + libmatroska v1.4.8
Видео
Идентификатор : 1
Формат : AVC
Формат/Информация : Advanced Video Codec
Профиль формата : High@L4.1
Параметр CABAC формата : Да
Параметр ReFrames формата : 10 кадров
Идентификатор кодека : V_MPEG4/ISO/AVC
Продолжительность : 1 ч. 35 м.
Битрейт : 1015 Кбит/сек
Ширина : 720 пикселей
Высота : 306 пикселей
Соотношение сторон : 2,35:1
Режим частоты кадров : Постоянный
Частота кадров : 25,000 кадров/сек
Цветовое пространство : YUV
Субдискретизация насыщенности : 4:2:0
Битовая глубина : 8 бит
Тип развёртки : Прогрессивная
Бит/(Пиксели*Кадры) : 0.184
Размер потока : 696 Мбайт (93%)
Заголовок : ExKinoRay
Библиотека кодирования : x264 core 148 r2744 b97ae06
Настройки программы : cabac=1 / ref=10 / deblock=1:-2:-2 / analyse=0x3:0x133 / me=umh / subme=11 / psy=1 / psy_rd=1.00:0.00 / mixed_ref=1 / me_range=32 / chroma_me=1 / trellis=2 / 8x8dct=1 / cqm=0 / deadzone=21,11 / fast_pskip=0 / chroma_qp_offset=-3 / threads=6 / lookahead_threads=1 / sliced_threads=0 / nr=0 / decimate=0 / interlaced=0 / bluray_compat=0 / constrained_intra=0 / bframes=10 / b_pyramid=2 / b_adapt=2 / b_bias=0 / direct=3 / weightb=1 / open_gop=0 / weightp=2 / keyint=250 / keyint_min=25 / scenecut=40 / intra_refresh=0 / rc_lookahead=40 / rc=2pass / mbtree=0 / bitrate=1015 / ratetol=1.0 / qcomp=0.60 / qpmin=0 / qpmax=69 / qpstep=4 / cplxblur=20.0 / qblur=0.5 / vbv_maxrate=50000 / vbv_bufsize=62500 / nal_hrd=none / filler=0 / ip_ratio=1.40 / pb_ratio=1.30 / aq=2:1.00
Язык : Russian
Default : Да
Forced : Нет
Аудио
Идентификатор : 2
Формат : AAC
Формат/Информация : Advanced Audio Codec
Профиль формата : LC
Идентификатор кодека : A_AAC
Продолжительность : 1 ч. 35 м.
Битрейт : 72,0 Кбит/сек
Каналы : 2 канала
Расположение каналов : Front: L R
Частота : 48,0 КГц
Частота кадров : 46,875 кадров/сек (1024 spf)
Метод сжатия : С потерями
Задержка видео : 9 мс.
Размер потока : 49,4 Мбайт (7%)
Язык : Russian
Default : Да
Forced : Нет
Меню
00:00:00.000 : en:Chapter 01
00:04:44.840 : en:Chapter 02
00:08:57.480 : en:Chapter 03
00:13:55.560 : en:Chapter 04
00:18:53.280 : en:Chapter 05
00:23:21.520 : en:Chapter 06
00:29:09.080 : en:Chapter 07
00:34:27.200 : en:Chapter 08
00:40:24.040 : en:Chapter 09
00:45:52.360 : en:Chapter 10
00:53:21.320 : en:Chapter 11
00:58:45.320 : en:Chapter 12
01:05:15.200 : en:Chapter 13
01:10:14.520 : en:Chapter 14
01:16:48.400 : en:Chapter 15
01:23:18.160 : en:Chapter 16
01:28:18.360 : en:Chapter 17
01:33:10.480 : en:Chapter 18
Скриншоты


Релиз от:
Автор Bot
Категория Наши фильмы
InfoHash 3AB8805A2BEA3366374D014BC7F6DAA47BE7B5F7
Файлы (1)
Показать файлы
Трекера
Показать трекера

    Нет комментариев

Войти на сайт

Статистика

  • Всего торрентов: 86209
  • Объёмом: 511.0 Тб
  • Сидов: 2599319
  • Личеров: 164376