Все раздачи Раздачи по тегам Правила Информация Контакты

Живет на свете женщина (1959) VHSRip

Живет на свете женщина (1959) VHSRip


Мы "В КОНТАКТЕ"


Страна: СССР
Производство: Ленинградское телевидение
Жанр: драма, фильм-спектакль
Год выпуска: 1959
Продолжительность: 02:10:34
Перевод: Не требуется
Cубтитры: нет
Оригинальная аудиодорожка: русский
Режиссер: Давид Карасик
В ролях:
Ариадна Кузнецова, Ольга Аверичева, Александра Дельвин, Адольф Шестаков, Герман Хованов, Александр Янкевский, Глеб Селянин, Нина Ургант, Галина Дунаева, Е. Клюева, Елена Деливрон...
Об актёрах подробней
Описание:
В прядильном цеху меланжевого комбината произошла авария. Работница Зоя Семенова получила тяжелую травму. В происшедшем некоторые коллеги обвинили начальника цеха - Галину Демидову, началось следствие. Дело поручили следователю Сухобоковой, человеку честному и принципиальному. В ходе следствия Сухобокова встречается с работницами цеха и друзьями Демидовой, которые не верят в вину Галины...

Исходник: VHS
Качество видео: VHSRip
Формат видео: AVI
Видео: 704х528 (4:3), 25 fps, XviD ~ 1463 kbps avg, 0.157 bit/pixel
Аудио: 48 kHz, MP3 2.0, 128 kbps
Раздача от:
MediaInfo

Общее
Полное имя : Zhivet.na.svete.zhenwina.1959.VHS_[New-team]_by_AVP_Studio.avi
Формат : AVI
Формат/Информация : Audio Video Interleave
Размер файла : 1,46 Гбайт
Продолжительность : 2 ч. 10 м.
Общий поток : 1600 Кбит/сек
Программа кодирования : VirtualDubMod 1.5.10.3 | www.virtualdub-fr.org || (build 2550/release)
Библиотека кодирования : VirtualDubMod build 2550/release
Видео
Идентификатор : 0
Формат : MPEG-4 Visual
Профиль формата : Advanced Simple@L5
Параметр BVOP формата : 1
Параметр QPel формата : Нет
Параметр GMC формата : Без точки перехода
Параметр матрицы формата : Выборочная
Идентификатор кодека : XVID
Идентификатор кодека/Подсказка : XviD
Продолжительность : 2 ч. 10 м.
Битрейт : 1463 Кбит/сек
Ширина : 704 пикселя
Высота : 528 пикселей
Соотношение сторон : 4:3
Частота кадров : 25,000 кадров/сек
Цветовое пространство : YUV
Субдискретизация насыщенности : 4:2:0
Битовая глубина : 8 бит
Тип развёртки : Прогрессивная
Метод сжатия : С потерями
Бит/(Пиксели*Кадры) : 0.157
Размер потока : 1,33 Гбайт (91%)
Библиотека кодирования : XviD 73
Аудио
Идентификатор : 1
Формат : MPEG Audio
Версия формата : Version 1
Профиль формата : Layer 3
Идентификатор кодека : 55
Идентификатор кодека/Подсказка : MP3
Продолжительность : 2 ч. 10 м.
Вид битрейта : Постоянный
Битрейт : 128 Кбит/сек
Каналы : 2 канала
Частота : 48,0 КГц
Метод сжатия : С потерями
Размер потока : 120 Мбайт (8%)
Выравнивание : Соединение по промежуткам
Продолжительность промежутка : 40 мс. (1,00 видеокадр)
Время предзагрузки промежутка : 504 мс.
Библиотека кодирования : LAME3.99r
Настройки программы : -m s -V 4 -q 2 -lowpass 17 -b 128

Скриншоты


Автор Bot
Категория Наши фильмы
InfoHash E0478CF349622515DD4DEDD1880A655B33BBABCA
Файлы (1)
Показать файлы
Трекера
Показать трекера
Похожие раздачи
Название Добавлен Размер Сид Лич
Живет на свете женщина (1959) VHSRip-AVC 15/11/2017 1.5 Гб 5 0

    Нет комментариев

Войти на сайт

Статистика

  • Всего торрентов: 86190
  • Объёмом: 510.9 Тб
  • Сидов: 2599419
  • Личеров: 164111