Все раздачи Раздачи по тегам Правила Информация Контакты
Ванька (1959) HDTVRip 1080p

Информация о фильме
Название: Ванька
Год выхода: 1959
Жанр: драма, семейный, короткометражка
Режиссер: Эдуард Бочаров
В ролях: Саша Барсов, Николай Никитич, Николай Плотников, Нонна Мордюкова, Петр Алейников, Владимир Борискин, Георгий Бударов, Алевтина Румянцева, Николай Сморчков, Ксения Козьмина
О фильме:
После смерти матери Ваньку отдали в ученье к сапожнику Аляхину. Нелегко ему живётся у хозяина. Ваньку заставляют няньчить ребёнка, а когда, случалось, он засыпал у люльки, его жестоко избивали. Били Ваньку за то, что начинал чистить селёдку с головы, били просто так... Мастеровые посылают Ваньку за водкой, заставляют красть у хозяина огурцы, издеваются над ним. Однажды, когда хозяева ушли в церковь, Ванька сел писать письмо дедушке о своём горьком житье-бытье...
По одноимённому рассказу А.П.Чехова.

Производство: СССР / к/ст им. М.Горького
Продолжительность: 00:30:18
Перевод: оригинал
Файл
Качество: HDTVRip 1080p
Формат: MKV
Видео: MPEG-4 AVC, 1440x1080 (4:3), 25.000 fps, 4606 kbps, 0.118 bit/pixel
Аудио: русский, AC3 5.1, 48 kHz, 448 kbps
MediaInfo
Формат : Matroska
Версия формата : Version 2
Размер файла : 1,09 Гбайт
Продолжительность : 30 м.
Режим общего битрейта : Переменный
Общий поток : 5156 Кбит/сек
Программа кодирования : Lavf54.63.104
Библиотека кодирования : Lavf54.63.104
Видео
Идентификатор : 1
Формат : AVC
Формат/Информация : Advanced Video Codec
Профиль формата : High@L4.1
Параметр CABAC формата : Да
Параметр ReFrames формата : 3 кадра
Идентификатор кодека : V_MPEG4/ISO/AVC
Продолжительность : 30 м.
Вид битрейта : Переменный
Битрейт : 4606 Кбит/сек
Максимальный битрейт : 19,2 Мбит/сек
Ширина : 1440 пикселей
Высота : 1080 пикселей
Соотношение сторон : 4:3
Режим частоты кадров : Постоянный
Частота кадров : 25,000 кадров/сек
Стандарт вещания : PAL
Цветовое пространство : YUV
Субдискретизация насыщенности : 4:2:0
Битовая глубина : 8 бит
Тип развёртки : Прогрессивная
Бит/(Пиксели*Кадры) : 0.118
Размер потока : 998 Мбайт (89%)
Default : Нет
Forced : Нет
Цветовой диапазон : Limited
Основные цвета : BT.709
Характеристики трансфера : BT.709
Коэффициенты матрицы : BT.709
Аудио
Идентификатор : 2
Формат : AC-3
Формат/Информация : Audio Coding 3
Расширение режима : CM (complete main)
Параметр Endianness формата : Big
Идентификатор кодека : A_AC3
Продолжительность : 30 м.
Вид битрейта : Постоянный
Битрейт : 448 Кбит/сек
Каналы : 6 каналов
Расположение каналов : Front: L C R, Side: L R, LFE
Частота : 48,0 КГц
Метод сжатия : С потерями
Размер потока : 97,1 Мбайт (9%)
Язык : Russian
Default : Да
Forced : Нет
Скриншоты
Автор Bot
Категория Наши фильмы
InfoHash 782966A41081AD95F4B1DCAF6DFC36CB46EBA359
Файлы (1)
Показать файлы
Трекера
Показать трекера

    Нет комментариев

Войти на сайт

Статистика

  • Всего торрентов: 86180
  • Объёмом: 510.9 Тб
  • Сидов: 2612998
  • Личеров: 162073