Все раздачи Раздачи по тегам Правила Информация Контакты

Каждому своё [01х01-02 из 02] (2017) WEB-DLRip 1080p

Каждому своё [01х01-02 из 02] (2017) WEB-DLRip 1080p

Информация о фильме
Название: Каждому своё
Год выхода: 2017
Жанр: Мелодрама
Режиссер: Ольга Ланд
В ролях: Ольга Фадеева, Елена Захарова, Себастьен Сисак, Кирилл Дыцевич, Нина Шацкая
О фильме:
Татьяна живёт во Франции. Она молода, красива, богата. Жизнь в особняке похожа на рекламный ролик. Но за этим фасадом скрываются несчастье и боль. Муж давно охладел к ней, стал чужим и жестоким. А развестись нельзя: адвокаты добьются, чтобы дети остались с ним. Вскоре Татьяна узнаёт, что её матери предстоит операция. Она летит в Россию, где встречает умопомрачительного красавца.
Страна: Россия
Студия: Марс Медиа
Продолжительность: 2 х ~ 00:46:00
Перевод: Не требуется
Файл
Кодек: h.264
Качество: WEB-DLRip 1080p
Видео: MPEG-4 AVC, ~ 5120 Кбит/с, 1920x1080, 25,000 кадр/с
Звук: Русский (AC3, 2 ch, 256 Кбит/с)
Субтитры: Нет
Семпл
MI
General
Unique ID : 228070369498335868779023852354685446483 (0xAB94C1622F4CD2B4A4ED043F8AE12953)
Complete name : D:uTorrentKazhdomu.svoje.2017.WEB-DLRip.1080pKazhdomu.svoje.(01.iz.02).2017.WEB-DLRip.1080p.MediaClub.mkv
Format : Matroska
Format version : Version 4 / Version 2
File size : 1.76 GiB
Duration : 46 min 48 s
Overall bit rate : 5 375 kb/s
Encoded date : UTC 2017-11-11 09:05:51
Writing application : mkvmerge v17.0.0 ('Be Ur Friend') 64-bit
Writing library : libebml v1.3.5 + libmatroska v1.4.8
Video
ID : 1
Format : AVC
Format/Info : Advanced Video Codec
Format profile : High@L4
Format settings : CABAC / 4 Ref Frames
Format settings, CABAC : Yes
Format settings, RefFrames : 4 frames
Codec ID : V_MPEG4/ISO/AVC
Duration : 46 min 48 s
Bit rate : 5 120 kb/s
Width : 1 920 pixels
Height : 1 080 pixels
Display aspect ratio : 16:9
Frame rate mode : Constant
Frame rate : 25.000 FPS
Color space : YUV
Chroma subsampling : 4:2:0
Bit depth : 8 bits
Scan type : Progressive
Bits/(Pixel*Frame) : 0.099
Stream size : 1.67 GiB (95%)
Title : WEB-DLRip by Silverok
Writing library : x264 core 142
Encoding settings : cabac=1 / ref=3 / deblock=1:0:0 / analyse=0x3:0x113 / me=hex / subme=7 / psy=1 / psy_rd=1.00:0.00 / mixed_ref=1 / me_range=16 / chroma_me=1 / trellis=1 / 8x8dct=1 / cqm=0 / deadzone=21,11 / fast_pskip=1 / chroma_qp_offset=-2 / threads=108 / lookahead_threads=8 / sliced_threads=0 / nr=0 / decimate=1 / interlaced=0 / bluray_compat=0 / constrained_intra=0 / bframes=6 / b_pyramid=2 / b_adapt=1 / b_bias=0 / direct=1 / weightb=1 / open_gop=0 / weightp=2 / keyint=50 / keyint_min=26 / scenecut=0 / intra_refresh=0 / rc_lookahead=40 / rc=2pass / mbtree=1 / bitrate=5120 / ratetol=1.0 / qcomp=0.60 / qpmin=0 / qpmax=69 / qpstep=4 / cplxblur=20.0 / qblur=0.5 / vbv_maxrate=7680 / vbv_bufsize=20480 / nal_hrd=none / filler=0 / ip_ratio=1.40 / aq=1:1.00
Default : Yes
Forced : No
Audio
ID : 2
Format : AC-3
Format/Info : Audio Coding 3
Codec ID : A_AC3
Duration : 46 min 48 s
Bit rate mode : Constant
Bit rate : 256 kb/s
Channel(s) : 2 channels
Channel positions : Front: L R
Sampling rate : 48.0 kHz
Frame rate : 31.250 FPS (1536 SPF)
Bit depth : 16 bits
Compression mode : Lossy
Stream size : 85.7 MiB (5%)
Language : Russian
Service kind : Complete Main
Default : Yes
Forced : No

Скриншоты

Релиз от: | Silverok
Автор Bot
Категория Наши фильмы
InfoHash D9587A3F57EE1B131E8BFDFBB9A0E9C8CA59D640
Файлы (1)
Показать файлы
Трекера
Показать трекера
Похожие раздачи
Название Добавлен Размер Сид Лич
Каждому своё [01х01-02 из 02] (2017) SATRip-AVC 15/11/2017 1.1 Гб 4 0

    Нет комментариев

Войти на сайт

Статистика

  • Всего торрентов: 86487
  • Объёмом: 512.4 Тб
  • Сидов: 2675931
  • Личеров: 177008