A PHP Error was encountered

Severity: Notice

Message: Trying to get property 'id' of non-object

Filename: controllers/Torrent.php

Line Number: 25

Backtrace:

File: /home/torr/www/application/controllers/Torrent.php
Line: 25
Function: _error_handler

File: /home/torr/www/public/index.php
Line: 317
Function: require_once

Судьба поэта (1959) DVDRip | 745.6 Мб - ToRR.ws

Подождите, загружаю...

Все раздачи Раздачи по тегам Правила Информация Контакты

Судьба поэта (1959) DVDRip

Судьба поэта (1959) DVDRip


Мы "В КОНТАКТЕ"


Страна: СССР
Производство: Таджикфильм
Жанр: драма, биография, история
Год выпуска: 1959
Продолжительность: 01:41:45
Перевод: Не требуется
Cубтитры: нет
Оригинальная аудиодорожка: русский
Режиссер: Борис Кимягаров
В ролях:
Марат Арипов, Нозукмо Шомансурова, Абдульхайр Касымов, Махмуд Тахири, Абдулхамид Нурматов, Дильбар Касымова, Ходжакули Рахматуллаев, София Туйбаева, Шамси Джураев, Мухаммеджан Касымов, Г. Ниязов, К. Мирзоев, Захир Дусматов, Абдусалом Рахимов, Алим Ходжаев, Бахтали Сабзалиев, Анвар Тураев, Сталина Азаматова...
Об актёрах подробней
Описание:
О жизни и деятельности таджикского поэта Рудаки (ок. 860-941), родоначальника поэзии на фарси.
Когда Рудаки пришёл ко двору эмира Насра Второго, он был молод, но его стихи уже знали многие. Ведь он писал о том, что близко каждому - о любви, верности, дружбе, о прекрасной родной земле, - и писал на таджикском языке, понятном всем простым людям.

Исходник: DVD5 R5
Качество видео: DVDRip
Формат видео: AVI
Видео: 576х432 (4:3), 25 fps, XviD ~ 887 kbps avg, 0.143 bit/pixel
Аудио: 48 kHz, MP3 2.0, 128 kbps
Раздача от:
MediaInfo

Общее
Полное имя : Sudba.poyeta.1959.DVDRip-745_[New-team]_by_AVP_Studio.avi
Формат : AVI
Формат/Информация : Audio Video Interleave
Размер файла : 746 Мбайт
Продолжительность : 1 ч. 41 м.
Общий поток : 1025 Кбит/сек
Программа кодирования : VirtualDubMod 1.5.10.3 | www.virtualdub-fr.org || (build 2550/release)
Библиотека кодирования : VirtualDubMod build 2550/release
Видео
Идентификатор : 0
Формат : MPEG-4 Visual
Профиль формата : Advanced Simple@L5
Параметр BVOP формата : 1
Параметр QPel формата : Нет
Параметр GMC формата : Без точки перехода
Параметр матрицы формата : Выборочная
Идентификатор кодека : XVID
Идентификатор кодека/Подсказка : XviD
Продолжительность : 1 ч. 41 м.
Битрейт : 887 Кбит/сек
Ширина : 576 пикселей
Высота : 432 пикселя
Соотношение сторон : 4:3
Частота кадров : 25,000 кадров/сек
Цветовое пространство : YUV
Субдискретизация насыщенности : 4:2:0
Битовая глубина : 8 бит
Тип развёртки : Прогрессивная
Метод сжатия : С потерями
Бит/(Пиксели*Кадры) : 0.143
Размер потока : 645 Мбайт (87%)
Библиотека кодирования : XviD 73
Аудио
Идентификатор : 1
Формат : MPEG Audio
Версия формата : Version 1
Профиль формата : Layer 3
Идентификатор кодека : 55
Идентификатор кодека/Подсказка : MP3
Продолжительность : 1 ч. 41 м.
Вид битрейта : Постоянный
Битрейт : 128 Кбит/сек
Каналы : 2 канала
Частота : 48,0 КГц
Метод сжатия : С потерями
Размер потока : 93,2 Мбайт (12%)
Выравнивание : Соединение по промежуткам
Продолжительность промежутка : 40 мс. (1,00 видеокадр)
Время предзагрузки промежутка : 504 мс.
Библиотека кодирования : LAME3.99r
Настройки программы : -m s -V 4 -q 2 -lowpass 17 -b 128

Скриншоты


Автор Bot
Категория Наши фильмы
InfoHash 0535E557ED10B48626EC00B0096BC49BD5C053C9
Файлы (1)
Показать файлы
Трекера
Показать трекера
Похожие раздачи
Название Добавлен Размер Сид Лич
Судьба поэта (1959) DVDRip 15/11/2017 1.1 Гб 0 0
Судьба поэта (1959) DVDRip-AVC 15/11/2017 1.1 Гб 0 0

    Нет комментариев

Войти на сайт

Статистика

  • Всего торрентов: 74829
  • Объёмом: 431.7 Тб
  • Сидов: 2001146
  • Личеров: 174151