Все раздачи Раздачи по тегам Правила Информация Контакты

Судьба поэта (1959) DVDRip

Судьба поэта (1959) DVDRip


Мы "В КОНТАКТЕ"


Страна: СССР
Производство: Таджикфильм
Жанр: драма, биография, история
Год выпуска: 1959
Продолжительность: 01:41:45
Перевод: Не требуется
Cубтитры: нет
Оригинальная аудиодорожка: русский
Режиссер: Борис Кимягаров
В ролях:
Марат Арипов, Нозукмо Шомансурова, Абдульхайр Касымов, Махмуд Тахири, Абдулхамид Нурматов, Дильбар Касымова, Ходжакули Рахматуллаев, София Туйбаева, Шамси Джураев, Мухаммеджан Касымов, Г. Ниязов, К. Мирзоев, Захир Дусматов, Абдусалом Рахимов, Алим Ходжаев, Бахтали Сабзалиев, Анвар Тураев, Сталина Азаматова...
Об актёрах подробней
Описание:
О жизни и деятельности таджикского поэта Рудаки (ок. 860-941), родоначальника поэзии на фарси.
Когда Рудаки пришёл ко двору эмира Насра Второго, он был молод, но его стихи уже знали многие. Ведь он писал о том, что близко каждому - о любви, верности, дружбе, о прекрасной родной земле, - и писал на таджикском языке, понятном всем простым людям.

Исходник: DVD5 R5
Качество видео: DVDRip
Формат видео: AVI
Видео: 704х528 (4:3), 25 fps, XviD ~ 1331 kbps avg, 0.143 bit/pixel
Аудио: 48 kHz, Dolby Digital AC3 2.0, 192 kbps
Раздача от:
MediaInfo

Общее
Полное имя : Sudba.poyeta.1959.DVDRip_[New-team]_by_AVP_Studio.avi
Формат : AVI
Формат/Информация : Audio Video Interleave
Размер файла : 1,09 Гбайт
Продолжительность : 1 ч. 41 м.
Общий поток : 1532 Кбит/сек
Программа кодирования : VirtualDubMod 1.5.10.3 | www.virtualdub-fr.org || (build 2550/release)
Библиотека кодирования : VirtualDubMod build 2550/release
Видео
Идентификатор : 0
Формат : MPEG-4 Visual
Профиль формата : Advanced Simple@L5
Параметр BVOP формата : 1
Параметр QPel формата : Нет
Параметр GMC формата : Без точки перехода
Параметр матрицы формата : Выборочная
Идентификатор кодека : XVID
Идентификатор кодека/Подсказка : XviD
Продолжительность : 1 ч. 41 м.
Битрейт : 1331 Кбит/сек
Ширина : 704 пикселя
Высота : 528 пикселей
Соотношение сторон : 4:3
Частота кадров : 25,000 кадров/сек
Цветовое пространство : YUV
Субдискретизация насыщенности : 4:2:0
Битовая глубина : 8 бит
Тип развёртки : Прогрессивная
Метод сжатия : С потерями
Бит/(Пиксели*Кадры) : 0.143
Размер потока : 968 Мбайт (87%)
Библиотека кодирования : XviD 73
Аудио
Идентификатор : 1
Формат : AC-3
Формат/Информация : Audio Coding 3
Параметр Endianness формата : Big
Идентификатор кодека : 2000
Продолжительность : 1 ч. 41 м.
Вид битрейта : Постоянный
Битрейт : 192 Кбит/сек
Каналы : 2 канала
Расположение каналов : Front: L R
Частота : 48,0 КГц
Частота кадров : 31,250 кадров/сек (1536 SPF)
Битовая глубина : 16 бит
Метод сжатия : С потерями
Размер потока : 140 Мбайт (13%)
Выравнивание : Разделение по промежуткам
Продолжительность промежутка : 40 мс. (1,00 видеокадр)
Время предзагрузки промежутка : 500 мс

Скриншоты


Автор Bot
Категория Наши фильмы
InfoHash C7D6FE7BE73BE0EE31DDF314C7FA74EE7555779E
Файлы (1)
Показать файлы
Трекера
Показать трекера
Похожие раздачи
Название Добавлен Размер Сид Лич
Судьба поэта (1959) DVDRip 15/11/2017 745.6 Мб 0 0
Судьба поэта (1959) DVDRip-AVC 15/11/2017 1.1 Гб 1 1

    Нет комментариев

Войти на сайт

Статистика

  • Всего торрентов: 86487
  • Объёмом: 512.4 Тб
  • Сидов: 2679227
  • Личеров: 177034