Все раздачи Раздачи по тегам Правила Информация Контакты

Поднятая целина (1959-1961) DVDRip

Поднятая целина (1959-1961) DVDRip


Мы "В КОНТАКТЕ"


Страна: СССР
Производство: Ленфильм
Жанр: драма
Год выпуска: 1959-1961
Продолжительность: 04:45:31 (01:29:35 + 01:35:24 + 01:40:32)
Перевод: не требуется
Субтитры: нет
Оригинальная аудиодорожка: русский
Режиссер: Александр Иванов
В ролях:
Пётр Чернов, Евгений Матвеев, Фёдор Шмаков, Владимир Дорофеев, Людмила Хитяева, Пётр Глебов, Виктор Чекмарёв, Иосиф Кутянский, Леонид Кмит, Олег Ярошенко, Николай Крючков, Андрей Абрикосов...
Полный список актёров
Описание:
Режиссер собрал в картине поистине звездный ансамбль - Евгений Матвеев, Петр Глебов, Игорь Дмитриев, Евгений Лебедев, Николай Крючков, Людмила Хитяева, - что сделало фильм лидером проката 1960 года (30,2 млн зрителей). И сегодня зрителя захватывает накал страстей, глубина характеров и прекрасная игра актеров, из которых хочется особенно выделить Евгения Матвеева. Его Макар Нагульнов стал поистине народным героем и всеобщим любимцем.


Исходник: DVD9 + DVD5 R5
Качество видео: DVDRip
Формат видео: AVI
Видео: 688х512 (4:3), 25 fps, XviD ~ 1661 kbps avg, 0.189 bit/pixel
Аудио: 48 kHz, Dolby Digital AC3 2.0, 192 kbps
Раздача от:
MediaInfo

Общее
Полное имя : Podnyataya.celina.1959.DVDRip_[New-team]_by_AVP_StudioСерия 02.avi
Формат : AVI
Формат/Информация : Audio Video Interleave
Размер файла : 1,24 Гбайт
Продолжительность : 1 ч. 35 м.
Общий поток : 1863 Кбит/сек
Программа кодирования : VirtualDubMod 1.5.10.3 | www.virtualdub-fr.org || (build 2550/release)
Библиотека кодирования : VirtualDubMod build 2550/release
Видео
Идентификатор : 0
Формат : MPEG-4 Visual
Профиль формата : Advanced Simple@L5
Параметр BVOP формата : 1
Параметр QPel формата : Нет
Параметр GMC формата : Без точки перехода
Параметр матрицы формата : Выборочная
Идентификатор кодека : XVID
Идентификатор кодека/Подсказка : XviD
Продолжительность : 1 ч. 35 м.
Битрейт : 1661 Кбит/сек
Ширина : 688 пикселей
Высота : 512 пикселей
Соотношение сторон : 4:3
Частота кадров : 25,000 кадров/сек
Цветовое пространство : YUV
Субдискретизация насыщенности : 4:2:0
Битовая глубина : 8 бит
Тип развёртки : Прогрессивная
Метод сжатия : С потерями
Бит/(Пиксели*Кадры) : 0.189
Размер потока : 1,11 Гбайт (89%)
Библиотека кодирования : XviD 73
Аудио
Идентификатор : 1
Формат : AC-3
Формат/Информация : Audio Coding 3
Параметр Endianness формата : Big
Идентификатор кодека : 2000
Продолжительность : 1 ч. 35 м.
Вид битрейта : Постоянный
Битрейт : 192 Кбит/сек
Каналы : 2 канала
Расположение каналов : Front: L R
Частота : 48,0 КГц
Частота кадров : 31,250 кадров/сек (1536 SPF)
Битовая глубина : 16 бит
Метод сжатия : С потерями
Размер потока : 131 Мбайт (10%)
Выравнивание : Разделение по промежуткам
Продолжительность промежутка : 40 мс. (1,00 видеокадр)
Время предзагрузки промежутка : 500 мс

Скриншоты


Автор Bot
Категория Наши фильмы
InfoHash FC4C9FF64A214E646812BD59EC454EFF8941358E
Файлы (1)
Показать файлы
Трекера
Показать трекера
Похожие раздачи
Название Добавлен Размер Сид Лич
Поднятая целина (1959-1961) DVDRip-AVC 23/12/2017 6.1 Гб 8 0
Поднятая целина (1939) DVDRip 23/12/2017 1.4 Гб 0 0
Поднятая целина (1959-1961) DVDRip-AVC 15/11/2017 745.3 Мб 6 0

    Нет комментариев

Войти на сайт

Статистика

  • Всего торрентов: 86209
  • Объёмом: 511.0 Тб
  • Сидов: 2599315
  • Личеров: 164389