Все раздачи Раздачи по тегам Правила Информация Контакты

Луна 2112 / Moon (2009) HDRip-AVC | P

Луна 2112 / Moon (2009) HDRip-AVC | P

Информация о фильме
Название: Луна 2112
Оригинальное название: Moon
Год выхода: 2009
Жанр: фантастика, триллер, драма, детектив
Режиссер: Дункан Джонс
В ролях: Сэм Рокуэлл, Кевин Спейси, Доминик МакЭллигот, Рози Шоу, Эдриэнн Шоу, Кая Скоделарио, Бенедикт Вонг, Мэтт Берри, Малкольм Стюарт, Робин Чок
О фильме :
Контракт Сэма подходит к концу: он провел три года на Луне, следя за автоматизированной станцией по добыче редкого газа. Три долгих года в полном одиночестве, если не считать говорящего робота ГЕРТИ, могут изменить любого. За две недели до возвращения на землю Сэм встречает своего сменщика — человека, как две капли воды похожего на него. Может, это галлюцинация? Или плод его больного воображения? Может, что-то случилось на Земле, и видеосообщения из дома, поддерживавшие Сэма все эти годы, — ложь?

Страна: Великобритания
Студия: Liberty Films UK, Limelight Fund, Lunar Industries, Xingu Films
Продолжительность: 01:37:09
Перевод: Профессиональный (многоголосый, закадровый) ТВ3
Файл
Формат: MKV
Качество: HDRip-AVC
Видео: MPEG-4 AVC, 768x320, ~ 996 Кбит/с
Аудио: AAC-LC, 2 ch, ~ 76 Кбит/с
Субтитры: Русские, украинские, английские
MI
Общее
Уникальный идентификатор : 242311642962884751610962459418769105313 (0xB64B866036718BEF9EAF9C752E1E21A1)
Полное имя : D:MOVIESMoon.2009.ExKinoRay.mkv
Формат : Matroska
Версия формата : Version 4 / Version 2
Размер файла : 746 Мбайт
Продолжительность : 1 ч. 37 м.
Общий поток : 1074 Кбит/сек
Дата кодирования : UTC 2017-11-14 18:51:31
Программа кодирования : mkvmerge v15.0.0 ('Duel with the Devil') 64-bit
Библиотека кодирования : libebml v1.3.5 + libmatroska v1.4.5
Видео
Идентификатор : 1
Формат : AVC
Формат/Информация : Advanced Video Codec
Профиль формата : High@L4.1
Параметр CABAC формата : Да
Параметр RefFrames формата : 10 кадров
Идентификатор кодека : V_MPEG4/ISO/AVC
Продолжительность : 1 ч. 37 м.
Битрейт : 996 Кбит/сек
Ширина : 768 пикселей
Высота : 320 пикселей
Соотношение сторон : 2,40:1
Режим частоты кадров : Постоянный
Частота кадров : 23,976 (24000/1001) кадра/сек
Цветовое пространство : YUV
Субдискретизация насыщенности : 4:2:0
Битовая глубина : 8 бит
Тип развёртки : Прогрессивная
Бит/(Пиксели*Кадры) : 0.169
Размер потока : 692 Мбайт (93%)
Библиотека кодирования : x264 core 152 r2851kMod ba24899
Настройки программы : cabac=1 / ref=10 / deblock=1:-2:-2 / analyse=0x3:0x133 / me=umh / subme=11 / psy=1 / fade_compensate=0.00 / psy_rd=1.00:0.05 / mixed_ref=1 / me_range=32 / chroma_me=1 / trellis=2 / 8x8dct=1 / cqm=0 / deadzone=21,11 / fast_pskip=0 / chroma_qp_offset=-3 / threads=6 / lookahead_threads=1 / sliced_threads=0 / nr=0 / decimate=0 / interlaced=0 / bluray_compat=0 / constrained_intra=0 / bframes=10 / b_pyramid=2 / b_adapt=2 / b_bias=0 / direct=3 / weightb=1 / open_gop=0 / weightp=2 / keyint=240 / keyint_min=23 / scenecut=40 / intra_refresh=0 / rc_lookahead=40 / rc=2pass / mbtree=1 / bitrate=996 / ratetol=1.0 / qcomp=0.60 / qpmin=0 / qpmax=69 / qpstep=4 / cplxblur=20.0 / qblur=0.5 / vbv_maxrate=50000 / vbv_bufsize=62500 / nal_hrd=none / filler=0 / ip_ratio=1.40 / aq=3:1.00
Default : Да
Forced : Нет
Аудио
Идентификатор : 2
Формат : AAC
Формат/Информация : Advanced Audio Codec
Профиль формата : LC
Идентификатор кодека : A_AAC
Продолжительность : 1 ч. 37 м.
Битрейт : 76,0 Кбит/сек
Каналы : 2 канала
Расположение каналов : Front: L R
Частота : 48,0 КГц
Частота кадров : 46,875 кадров/сек (1024 SPF)
Метод сжатия : С потерями
Задержка видео : 9 мс.
Размер потока : 52,8 Мбайт (7%)
Язык : Russian
Default : Да
Forced : Нет
Текст #1
Идентификатор : 3
Формат : UTF-8
Идентификатор кодека : S_TEXT/UTF8
Идентификатор кодека/Информация : UTF-8 Plain Text
Продолжительность : 1 ч. 32 м.
Битрейт : 71 бит/сек
ElementCount : 878
Размер потока : 48,4 Кбайт (0%)
Язык : Russian
Default : Нет
Forced : Нет
Текст #2
Идентификатор : 4
Формат : UTF-8
Идентификатор кодека : S_TEXT/UTF8
Идентификатор кодека/Информация : UTF-8 Plain Text
Продолжительность : 1 ч. 32 м.
Битрейт : 67 бит/сек
ElementCount : 809
Размер потока : 45,7 Кбайт (0%)
Язык : Ukrainian
Default : Нет
Forced : Нет
Текст #3
Идентификатор : 5
Формат : UTF-8
Идентификатор кодека : S_TEXT/UTF8
Идентификатор кодека/Информация : UTF-8 Plain Text
Продолжительность : 1 ч. 32 м.
Битрейт : 47 бит/сек
ElementCount : 893
Размер потока : 32,1 Кбайт (0%)
Язык : English
Default : Нет
Forced : Нет
Меню
00:00:00.000 : en:1.
00:05:41.966 : en:2.
00:11:05.164 : en:3.
00:18:00.954 : en:4.
00:22:58.835 : en:5.
00:28:47.976 : en:6.
00:34:35.907 : en:7.
00:42:52.987 : en:8.
00:47:28.011 : en:9.
00:54:35.939 : en:10.
01:01:55.211 : en:11.
01:07:38.220 : en:12.
01:13:15.182 : en:13.
01:16:49.938 : en:14.
01:22:32.656 : en:15.
01:30:40.143 : en:16.
Скриншоты



Релиз от:
Автор Bot
Категория Зарубежные фильмы
InfoHash 64D15C14843808C09A8D7D0E188D89D11F393A88
Файлы (1)
Показать файлы
Трекера
Показать трекера
Похожие раздачи
Название Добавлен Размер Сид Лич
Луна 2112 / Moon (2009) BDRip 1080p | P, A 30/06/2018 12.8 Гб 3 0
Луна 2112 / Moon (2009) BDRip 1080p 22/12/2017 5.8 Гб 2 0

    Нет комментариев

Войти на сайт

Статистика

  • Всего торрентов: 86487
  • Объёмом: 512.4 Тб
  • Сидов: 2676827
  • Личеров: 177043