A PHP Error was encountered

Severity: Notice

Message: Trying to get property 'id' of non-object

Filename: controllers/Torrent.php

Line Number: 25

Backtrace:

File: /home/torr/www/application/controllers/Torrent.php
Line: 25
Function: _error_handler

File: /home/torr/www/public/index.php
Line: 317
Function: require_once

Василий Суриков (1959) SATRip | 745.3 Мб - ToRR.ws

Подождите, загружаю...

Все раздачи Раздачи по тегам Правила Информация Контакты

Василий Суриков (1959) SATRip

Василий Суриков (1959) SATRip


Мы "В КОНТАКТЕ"


Страна: СССР
Производство: Мосфильм
Жанр: драма, биография
Год выпуска: 1959
Продолжительность: 01:28:16
Перевод: Не требуется
Cубтитры: нет
Оригинальная аудиодорожка: русский
Режиссер: Анатолий Рыбаков
В ролях:
Евгений Лазарев, Лариса Кадочникова, Леонид Галлис, Геннадий Юдин, Георгий Вицин, Иван Кудрявцев, Анатолий Федоринов, Владимир Марута, Владимир Белокуров, Георгий Черноволенко, Николай Сергеев, Анатолий Кубацкий, Николай Горлов, Владимир Пицек...
Об актёрах подробней
Описание:
Фильм рассказывает о двух десятилетиях жизни знаменитого русского живописца Василия Ивановича Сурикова (1848-1916).
В конце 1860-х годов благодаря финансовой поддержке красноярского мецената золотопромышленника Кузнецова, талантливый юноша Василий Суриков (Евгений Лазарев) едет в Петербург и после трёхмесячной подготовки сдаёт экзамены для поступления в Академию художеств...

Источник: DVB
Качество видео: SATRip
Формат видео: AVI
Видео: 640x480 (4:3), 25 fps, XviD ~ 1043 kbps avg, 0.136 bit/pixel
Аудио: 48 kHz, MP3 2.0, 128 kbps
Раздача от:
MediaInfo

Общее
Полное имя : Vasiliy.Surikov.1959.SATRip-745_[New-team]_by_AVP_Studio.avi
Формат : AVI
Формат/Информация : Audio Video Interleave
Размер файла : 745 Мбайт
Продолжительность : 1 ч. 28 м.
Общий поток : 1180 Кбит/сек
Программа кодирования : VirtualDubMod 1.5.10.3 | www.virtualdub-fr.org || (build 2550/release)
Библиотека кодирования : VirtualDubMod build 2550/release
Видео
Идентификатор : 0
Формат : MPEG-4 Visual
Профиль формата : Advanced Simple@L5
Параметр BVOP формата : 1
Параметр QPel формата : Нет
Параметр GMC формата : Без точки перехода
Параметр матрицы формата : Выборочная
Идентификатор кодека : XVID
Идентификатор кодека/Подсказка : XviD
Продолжительность : 1 ч. 28 м.
Битрейт : 1043 Кбит/сек
Ширина : 640 пикселей
Высота : 480 пикселей
Соотношение сторон : 4:3
Частота кадров : 25,000 кадров/сек
Цветовое пространство : YUV
Субдискретизация насыщенности : 4:2:0
Битовая глубина : 8 бит
Тип развёртки : Прогрессивная
Метод сжатия : С потерями
Бит/(Пиксели*Кадры) : 0.136
Размер потока : 658 Мбайт (88%)
Библиотека кодирования : XviD 73
Аудио
Идентификатор : 1
Формат : MPEG Audio
Версия формата : Version 1
Профиль формата : Layer 3
Идентификатор кодека : 55
Идентификатор кодека/Подсказка : MP3
Продолжительность : 1 ч. 28 м.
Вид битрейта : Постоянный
Битрейт : 128 Кбит/сек
Каналы : 2 канала
Частота : 48,0 КГц
Метод сжатия : С потерями
Размер потока : 80,8 Мбайт (11%)
Выравнивание : Соединение по промежуткам
Продолжительность промежутка : 40 мс. (1,00 видеокадр)
Время предзагрузки промежутка : 504 мс.
Библиотека кодирования : LAME3.99r
Настройки программы : -m s -V 4 -q 2 -lowpass 17 -b 128

Скриншоты


Автор Bot
Категория Наши фильмы
InfoHash 1CFCBA3AB971D9857DB56BBFCC9E38CCD1D251B2
Файлы (1)
Показать файлы
Трекера
Показать трекера
Похожие раздачи
Название Добавлен Размер Сид Лич
Василий Суриков (1959) SATRip-AVC 11/04/2018 1.7 Гб 9 2
Василий Суриков (1959) SATRip 15/11/2017 1.1 Гб 3 0
Василий Суриков (1959) SATRip-AVC 15/11/2017 1.1 Гб 0 0

    Нет комментариев

Войти на сайт

Статистика

  • Всего торрентов: 73745
  • Объёмом: 423.3 Тб
  • Сидов: 2094369
  • Личеров: 168725