Все раздачи Раздачи по тегам Правила Информация Контакты

Василий Суриков (1959) SATRip

Василий Суриков (1959) SATRip


Мы "В КОНТАКТЕ"


Страна: СССР
Производство: Мосфильм
Жанр: драма, биография
Год выпуска: 1959
Продолжительность: 01:28:16
Перевод: Не требуется
Cубтитры: нет
Оригинальная аудиодорожка: русский
Режиссер: Анатолий Рыбаков
В ролях:
Евгений Лазарев, Лариса Кадочникова, Леонид Галлис, Геннадий Юдин, Георгий Вицин, Иван Кудрявцев, Анатолий Федоринов, Владимир Марута, Владимир Белокуров, Георгий Черноволенко, Николай Сергеев, Анатолий Кубацкий, Николай Горлов, Владимир Пицек...
Об актёрах подробней
Описание:
Фильм рассказывает о двух десятилетиях жизни знаменитого русского живописца Василия Ивановича Сурикова (1848-1916).
В конце 1860-х годов благодаря финансовой поддержке красноярского мецената золотопромышленника Кузнецова, талантливый юноша Василий Суриков (Евгений Лазарев) едет в Петербург и после трёхмесячной подготовки сдаёт экзамены для поступления в Академию художеств...

Источник: DVB
Качество видео: SATRip
Формат видео: AVI
Видео: 672x496 (4:3), 25 fps, XviD ~ 1566 kbps avg, 0.188 bit/pixel
Аудио: 48 kHz, Dolby Digital AC3 2.0, 192 kbps
Раздача от:
MediaInfo

Общее
Полное имя : Vasiliy.Surikov.1959.SATRip_[New-team]_by_AVP_Studio.avi
Формат : AVI
Формат/Информация : Audio Video Interleave
Размер файла : 1,09 Гбайт
Продолжительность : 1 ч. 28 м.
Общий поток : 1767 Кбит/сек
Программа кодирования : VirtualDubMod 1.5.10.3 | www.virtualdub-fr.org || (build 2550/release)
Библиотека кодирования : VirtualDubMod build 2550/release
Видео
Идентификатор : 0
Формат : MPEG-4 Visual
Профиль формата : Advanced Simple@L5
Параметр BVOP формата : 1
Параметр QPel формата : Нет
Параметр GMC формата : Без точки перехода
Параметр матрицы формата : Выборочная
Идентификатор кодека : XVID
Идентификатор кодека/Подсказка : XviD
Продолжительность : 1 ч. 28 м.
Битрейт : 1566 Кбит/сек
Ширина : 672 пикселя
Высота : 496 пикселей
Соотношение сторон : 4:3
Частота кадров : 25,000 кадров/сек
Цветовое пространство : YUV
Субдискретизация насыщенности : 4:2:0
Битовая глубина : 8 бит
Тип развёртки : Прогрессивная
Метод сжатия : С потерями
Бит/(Пиксели*Кадры) : 0.188
Размер потока : 988 Мбайт (89%)
Библиотека кодирования : XviD 73
Аудио
Идентификатор : 1
Формат : AC-3
Формат/Информация : Audio Coding 3
Параметр Endianness формата : Big
Идентификатор кодека : 2000
Продолжительность : 1 ч. 28 м.
Вид битрейта : Постоянный
Битрейт : 192 Кбит/сек
Каналы : 2 канала
Расположение каналов : Front: L R
Частота : 48,0 КГц
Частота кадров : 31,250 кадров/сек (1536 SPF)
Битовая глубина : 16 бит
Метод сжатия : С потерями
Размер потока : 121 Мбайт (11%)
Выравнивание : Разделение по промежуткам
Продолжительность промежутка : 40 мс. (1,00 видеокадр)
Время предзагрузки промежутка : 500 мс

Скриншоты


Автор Bot
Категория Наши фильмы
InfoHash C24BDCD116CBC7579E492B49022D15DBEA5B0216
Файлы (1)
Показать файлы
Трекера
Показать трекера
Похожие раздачи
Название Добавлен Размер Сид Лич
Василий Суриков (1959) SATRip-AVC 11/04/2018 1.7 Гб 3 0
Василий Суриков (1959) SATRip 15/11/2017 745.3 Мб 0 0
Василий Суриков (1959) SATRip-AVC 15/11/2017 1.1 Гб 1 0

    Нет комментариев

Войти на сайт

Статистика

  • Всего торрентов: 86180
  • Объёмом: 510.9 Тб
  • Сидов: 2613012
  • Личеров: 162030