Подождите, загружаю...

Все раздачи Раздачи по тегам Правила Информация Контакты

Необыкновенное путешествие Мишки Стрекачёва (1959) SATRip

Необыкновенное путешествие Мишки Стрекачёва (1959) SATRip


Мы "В КОНТАКТЕ"


Страна: СССР
Производство: Киностудия им. Горького
Жанр: семейный
Год выпуска: 1959
Продолжительность: 01:22:16
Перевод: Не требуется
Cубтитры: нет
Оригинальная аудиодорожка: русский
Режиссер: Илья Фрэз, Эдуард Бочаров
В ролях:
Алексей Борзунов, Лена Шептицкая, Слава Девкин, Рая Николаева, Миша Копытов, Саша Вдовин, Константин Сорокин, Виктор Хохряков, Михаил Трояновский, Георгий Гумилевский, Валерий Носик, Пётр Алейников, Татьяна Пельтцер, Валентина Телегина, Евгений Кудряшёв, Алексей Грибов...
Об актёрах подробней
Описание:
Однажды на заводе изготовили сверх плана партию комбайнов. Их решили отправить в подшефный совхоз на целину. Группа учеников ремесленного училища, обучавшаяся на этом заводе, завоевала честь сопровождать эти комбайны. Мишка Стрекачёв (Алексей Борзунов), единственный человек из группы, которого за провинность не взяли на целину, совершил новый проступок. Он снял с нового комбайна шестерёнку, желая выручить подругу, «запоровшую» деталь.


Источник: DVB
Качество видео: SATRip
Формат видео: AVI
Видео: 640x480 (4:3), 25 fps, XviD ~ 1128 kbps avg, 0.147 bit/pixel
Аудио: 48 kHz, MP3 2.0, 128 kbps
Раздача от:
MediaInfo

Общее
Полное имя : Neobyknovennoe.puteshestvie.Mishki.Strekacheva.1959.SATRip-745_[New-team]_by_AVP_Studio.avi
Формат : AVI
Формат/Информация : Audio Video Interleave
Размер файла : 745 Мбайт
Продолжительность : 1 ч. 22 м.
Общий поток : 1266 Кбит/сек
Программа кодирования : VirtualDubMod 1.5.10.3 | www.virtualdub-fr.org || (build 2550/release)
Библиотека кодирования : VirtualDubMod build 2550/release
Видео
Идентификатор : 0
Формат : MPEG-4 Visual
Профиль формата : Advanced Simple@L5
Параметр BVOP формата : 1
Параметр QPel формата : Нет
Параметр GMC формата : Без точки перехода
Параметр матрицы формата : Выборочная
Идентификатор кодека : XVID
Идентификатор кодека/Подсказка : XviD
Продолжительность : 1 ч. 22 м.
Битрейт : 1128 Кбит/сек
Ширина : 640 пикселей
Высота : 480 пикселей
Соотношение сторон : 4:3
Частота кадров : 25,000 кадров/сек
Цветовое пространство : YUV
Субдискретизация насыщенности : 4:2:0
Битовая глубина : 8 бит
Тип развёртки : Прогрессивная
Метод сжатия : С потерями
Бит/(Пиксели*Кадры) : 0.147
Размер потока : 664 Мбайт (89%)
Библиотека кодирования : XviD 73
Аудио
Идентификатор : 1
Формат : MPEG Audio
Версия формата : Version 1
Профиль формата : Layer 3
Идентификатор кодека : 55
Идентификатор кодека/Подсказка : MP3
Продолжительность : 1 ч. 22 м.
Вид битрейта : Постоянный
Битрейт : 128 Кбит/сек
Каналы : 2 канала
Частота : 48,0 КГц
Метод сжатия : С потерями
Размер потока : 75,3 Мбайт (10%)
Выравнивание : Соединение по промежуткам
Продолжительность промежутка : 40 мс. (1,00 видеокадр)
Время предзагрузки промежутка : 504 мс.
Библиотека кодирования : LAME3.99r
Настройки программы : -m s -V 4 -q 2 -lowpass 17 -b 128

Скриншоты


Автор Bot
Категория Наши фильмы
InfoHash C6C7139C6CE2C22197ABF1142A1EC8552A127B7B
Файлы (1)
Показать файлы
Трекера
Показать трекера
Похожие раздачи

    Нет комментариев

Войти на сайт

Статистика

  • Всего торрентов: 74266
  • Объёмом: 426.7 Тб
  • Сидов: 2144155
  • Личеров: 185772