Подождите, загружаю...

Все раздачи Раздачи по тегам Правила Информация Контакты

Необыкновенное путешествие Мишки Стрекачёва (1959) SATRip

Необыкновенное путешествие Мишки Стрекачёва (1959) SATRip


Мы "В КОНТАКТЕ"


Страна: СССР
Производство: Киностудия им. Горького
Жанр: семейный
Год выпуска: 1959
Продолжительность: 01:22:16
Перевод: Не требуется
Cубтитры: нет
Оригинальная аудиодорожка: русский
Режиссер: Илья Фрэз, Эдуард Бочаров
В ролях:
Алексей Борзунов, Лена Шептицкая, Слава Девкин, Рая Николаева, Миша Копытов, Саша Вдовин, Константин Сорокин, Виктор Хохряков, Михаил Трояновский, Георгий Гумилевский, Валерий Носик, Пётр Алейников, Татьяна Пельтцер, Валентина Телегина, Евгений Кудряшёв, Алексей Грибов...
Об актёрах подробней
Описание:
Однажды на заводе изготовили сверх плана партию комбайнов. Их решили отправить в подшефный совхоз на целину. Группа учеников ремесленного училища, обучавшаяся на этом заводе, завоевала честь сопровождать эти комбайны. Мишка Стрекачёв (Алексей Борзунов), единственный человек из группы, которого за провинность не взяли на целину, совершил новый проступок. Он снял с нового комбайна шестерёнку, желая выручить подругу, «запоровшую» деталь.


Источник: DVB
Качество видео: SATRip
Формат видео: AVI
Видео: 688x512 (4:3), 25 fps, XviD ~ 1692 kbps avg, 0.192 bit/pixel
Аудио: 48 kHz, Dolby Digital AC3 2.0, 192 kbps
Раздача от:
MediaInfo

Общее
Полное имя : Neobyknovennoe.puteshestvie.Mishki.Strekacheva.1959.SATRip_[New-team]_by_AVP_Studio.avi
Формат : AVI
Формат/Информация : Audio Video Interleave
Размер файла : 1,09 Гбайт
Продолжительность : 1 ч. 22 м.
Общий поток : 1894 Кбит/сек
Программа кодирования : VirtualDubMod 1.5.10.3 | www.virtualdub-fr.org || (build 2550/release)
Библиотека кодирования : VirtualDubMod build 2550/release
Видео
Идентификатор : 0
Формат : MPEG-4 Visual
Профиль формата : Advanced Simple@L5
Параметр BVOP формата : 1
Параметр QPel формата : Нет
Параметр GMC формата : Без точки перехода
Параметр матрицы формата : Выборочная
Идентификатор кодека : XVID
Идентификатор кодека/Подсказка : XviD
Продолжительность : 1 ч. 22 м.
Битрейт : 1692 Кбит/сек
Ширина : 688 пикселей
Высота : 512 пикселей
Соотношение сторон : 4:3
Частота кадров : 25,000 кадров/сек
Цветовое пространство : YUV
Субдискретизация насыщенности : 4:2:0
Битовая глубина : 8 бит
Тип развёртки : Прогрессивная
Метод сжатия : С потерями
Бит/(Пиксели*Кадры) : 0.192
Размер потока : 996 Мбайт (89%)
Библиотека кодирования : XviD 73
Аудио
Идентификатор : 1
Формат : AC-3
Формат/Информация : Audio Coding 3
Параметр Endianness формата : Big
Идентификатор кодека : 2000
Продолжительность : 1 ч. 22 м.
Вид битрейта : Постоянный
Битрейт : 192 Кбит/сек
Каналы : 2 канала
Расположение каналов : Front: L R
Частота : 48,0 КГц
Частота кадров : 31,250 кадров/сек (1536 SPF)
Битовая глубина : 16 бит
Метод сжатия : С потерями
Размер потока : 113 Мбайт (10%)
Выравнивание : Разделение по промежуткам
Продолжительность промежутка : 40 мс. (1,00 видеокадр)
Время предзагрузки промежутка : 500 мс

Скриншоты


Автор Bot
Категория Наши фильмы
InfoHash D780F4961CB4437363F0A41C2B6E8FF6AEEB4599
Файлы (1)
Показать файлы
Трекера
Показать трекера
Похожие раздачи

    Нет комментариев

Войти на сайт

Статистика

  • Всего торрентов: 74266
  • Объёмом: 426.7 Тб
  • Сидов: 2144399
  • Личеров: 185934