A PHP Error was encountered

Severity: Notice

Message: Trying to get property 'id' of non-object

Filename: controllers/Torrent.php

Line Number: 25

Backtrace:

File: /home/torr/www/application/controllers/Torrent.php
Line: 25
Function: _error_handler

File: /home/torr/www/public/index.php
Line: 317
Function: require_once

Холодное танго (2017) BDRip 720p | Лицензия | 5.7 Гб - ToRR.ws

Подождите, загружаю...

Все раздачи Раздачи по тегам Правила Информация Контакты

Холодное танго (2017) BDRip 720p | Лицензия

Холодное танго (2017) BDRip 720p | Лицензия

Информация о фильме
Название: Холодное танго
Год выпуска: 2017
Жанр: Мелодрама, военный, драма, история
Режиссер: Павел Чухрай
В ролях: Юлия Пересильд, Риналь Мухаметов, Карина Каграманян, Сергей Гармаш, Елисей Никандров, Ася Громова, Моника Санторо, Валерия Ткаченко, Андрюс Бялобжескис, Мария Малиновская
Описание:
Фильм рассказывает историю молодых влюбленных, чье счастливое будущее разбивается о реалии Великой Отечественной войны. Максим, юноша из еврейской семьи, был отправлен в фашистские лагеря смерти, но там ему чудом удалось выжить. Герой возвращается в родной город, чтобы найти свою возлюбленную Лайму. Однако счастливого воссоединения влюбленных не происходит, ведь отец Лаймы оказался пособником фашистского режима.

Страна: Россия
Студия: Кинокомпания «Слон»
Продолжительность: 01:46:39
Язык: Русский | Лицензия
Файл
Контейнер: MKV
Качество: BDRip 720p
Видео: AVC, 1280x690 (2.40:1), 24.000 fps, 5548 Kbps, 0.262 bit/pixel
Аудио 1: AC-3, 48.0 KHz, 5.1 ch, 640 Kbps, CBR (Russian)
Аудио 2: 48 kHz, DTS, 5.1, 1509 Kbps | RUS
МИ
x264 [info]: frame I:1085 Avg QP:15.01 size:142112
x264 [info]: frame P:35758 Avg QP:18.22 size: 55049
x264 [info]: frame B:116755 Avg QP:19.70 size: 19804
-----------------------------------------------
General
Unique ID : 236024662416624864512691155714017095709 (0xB190B24D934D531D9CC9AB36D678701D)
Complete name : D:Cold.Tango.2017.BDRip.720p.ExKinoRay.mkv
Format : Matroska
Format version : Version 2
File size : 5.73 GiB
Duration : 1 h 46 min
Overall bit rate : 7 695 kb/s
Movie name : Холодное танго (2017) from ExKinoRay
Encoded date : UTC 2017-11-04 11:38:06
Writing application : mkvmerge v5.6.0 ('Kenya Kane') built on May 27 2012 16:44:04
Writing library : libebml v1.2.3 + libmatroska v1.3.0
Video
ID : 1
Format : AVC
Format/Info : Advanced Video Codec
Format profile : High@L4.1
Format settings, CABAC : Yes
Format settings, ReFrames : 9 frames
Codec ID : V_MPEG4/ISO/AVC
Duration : 1 h 46 min
Bit rate : 5 548 kb/s
Width : 1 280 pixels
Height : 690 pixels
Display aspect ratio : 1.85:1
Frame rate mode : Constant
Frame rate : 24.000 FPS
Color space : YUV
Chroma subsampling : 4:2:0
Bit depth : 8 bits
Scan type : Progressive
Bits/(Pixel*Frame) : 0.262
Stream size : 4.02 GiB (70%)
Title : Enigma
Writing library : x264 core 152 r2851 ba24899
Encoding settings : cabac=1 / ref=9 / deblock=1:-2:-2 / analyse=0x3:0x113 / me=umh / subme=10 / psy=1 / psy_rd=1.00:0.05 / mixed_ref=1 / me_range=32 / chroma_me=1 / trellis=2 / 8x8dct=1 / cqm=0 / deadzone=21,11 / fast_pskip=1 / chroma_qp_offset=-3 / threads=12 / lookahead_threads=3 / sliced_threads=0 / nr=0 / decimate=0 / interlaced=0 / bluray_compat=0 / constrained_intra=0 / bframes=10 / b_pyramid=2 / b_adapt=2 / b_bias=0 / direct=3 / weightb=1 / open_gop=0 / weightp=2 / keyint=240 / keyint_min=24 / scenecut=40 / intra_refresh=0 / rc_lookahead=40 / rc=2pass / mbtree=0 / bitrate=5548 / ratetol=1.0 / qcomp=0.63 / qpmin=0 / qpmax=51 / qpstep=4 / cplxblur=20.0 / qblur=0.5 / vbv_maxrate=50000 / vbv_bufsize=62500 / nal_hrd=none / filler=0 / ip_ratio=1.40 / pb_ratio=1.30 / aq=2:0.80
Language : English
Default : Yes
Forced : No
Color range : Limited
Color primaries : BT.709
Transfer characteristics : BT.709
Matrix coefficients : BT.709
Audio #1
ID : 2
Format : AC-3
Format/Info : Audio Coding 3
Mode extension : CM (complete main)
Format settings, Endianness : Big
Codec ID : A_AC3
Duration : 1 h 46 min
Bit rate mode : Constant
Bit rate : 640 kb/s
Channel(s) : 6 channels
Channel positions : Front: L C R, Side: L R, LFE
Sampling rate : 48.0 kHz
Frame rate : 31.250 FPS (1536 spf)
Compression mode : Lossy
Stream size : 488 MiB (8%)
Title : Лицензия
Language : Russian
Default : Yes
Forced : No
Audio #2
ID : 3
Format : DTS
Format/Info : Digital Theater Systems
Mode : 16
Format settings, Endianness : Big
Codec ID : A_DTS
Duration : 1 h 46 min
Bit rate mode : Constant
Bit rate : 1 509 kb/s
Channel(s) : 6 channels
Channel positions : Front: L C R, Side: L R, LFE
Sampling rate : 48.0 kHz
Frame rate : 93.750 FPS (512 spf)
Bit depth : 24 bits
Compression mode : Lossy
Stream size : 1.12 GiB (20%)
Title : Лицензия
Language : Russian
Default : No
Forced : No
Menu
00:00:00.000 : ru:Chapter 01
00:02:23.291 : ru:Chapter 02
00:12:57.625 : ru:Chapter 03
00:24:11.750 : ru:Chapter 04
00:37:37.916 : ru:Chapter 05
00:50:45.708 : ru:Chapter 06
01:04:37.625 : ru:Chapter 07
01:16:17.291 : ru:Chapter 08
01:30:06.250 : ru:Chapter 09


Релиз от:
Автор релиза:
Автор Bot
Категория Наши фильмы
InfoHash A31D37DE827830DF57353D02BFC570D21B66573D
Файлы (1)
Показать файлы
Трекера
Показать трекера
Похожие раздачи

    Нет комментариев

Войти на сайт

Статистика

  • Всего торрентов: 74836
  • Объёмом: 431.7 Тб
  • Сидов: 2001182
  • Личеров: 174240