Подождите, загружаю...

Все раздачи Раздачи по тегам Правила Информация Контакты

И я там был (2015) DVB

И я там был (2015) DVB

Информация о фильме
Название: И я там был
Год выхода: 2015
Жанр: мелодрама, комедия, фэнтези
Режиссер: Леонид Биц, Александр Муратов, Александр Зеленков
В ролях: Дмитрий Назаров, Павел Левкин, Саёра Сафари, Дарья Калмыкова, Кристина Бабушкина, Фархад Махмудов, Владимир Юматов, Леонид Тимцуник, Султан Дикамбаев, Ольга Дмитриева, Ирина Крячун, Румия Агишева
О фильме:
Это сказочная история о любви, главные герои которой, молодые люди, волею судьбы попадают в волшебный мир, где им предстоит пройти множество забавных, а порой, и серьезных испытаний.

Страна: Россия
Продолжительность: 01:31:41
Перевод: оригинал
Файл
Качество: DVB
Формат: MPEG-TS
Видео: AVC, 720x576@1024@576 (16:9), 25.000 fps, 2348 kbps, 0.226 bit/pixel
Аудио: русский, MP2 2.0, 48 kHz, 192 kbps
От себя
О фильме очень мало данных, а те, что есть, зачастую противоречивы. На некоторых ресурсах он вообще значится как незавершённый. И после просмотра сложилось впечатление, что так оно и есть. Концовка сказочной линии какая-то скомканая, попаданческая линия вообще непришейрукав, что это и зачем? Впечатление, что задумывалось что-то куда большее, но не срослось, и решили выдать то, что уже сняли, не пропадать же добру. А может я и не прав, всё изначально тупо так и задумывалось. Ну очень тупо... Информацию для оформления брал из титров, она местами расходится с кинопоисковой, жанр взял с единственного найденного постера. Кстати, везде в сети указывается, что фильм 2015 года, но в титрах написано 2013.
MediaInfo
Формат : MPEG-TS
Размер файла : 1,71 Гбайт
Продолжительность : 1 ч. 31 м.
Режим общего битрейта : Переменный
Общий поток : 2674 Кбит/сек
Видео
Идентификатор : 1481 (0x5C9)
Идентификатор меню : 89 (0x59)
Формат : AVC
Формат/Информация : Advanced Video Codec
Профиль формата : Main@L3
Параметр CABAC формата : Да
Параметр ReFrames формата : 4 кадра
Идентификатор кодека : 27
Продолжительность : 1 ч. 31 м.
Битрейт : 2348 Кбит/сек
Ширина : 720 пикселей
Высота : 576 пикселей
Соотношение сторон : 16:9
Частота кадров : 25,000 кадров/сек
Стандарт вещания : Component
Цветовое пространство : YUV
Субдискретизация насыщенности : 4:2:0
Битовая глубина : 8 бит
Тип развёртки : Чересстрочная
Порядок развёртки : Верхнее поле первое
Бит/(Пиксели*Кадры) : 0.226
Размер потока : 1,50 Гбайт (88%)
Цветовой диапазон : Limited
Основные цвета : BT.601 PAL
Характеристики трансфера : BT.470 System B, BT.470 System G
Коэффициенты матрицы : BT.601
Аудио
Идентификатор : 1482 (0x5CA)
Идентификатор меню : 89 (0x59)
Формат : MPEG Audio
Версия формата : Version 1
Профиль формата : Layer 2
Идентификатор кодека : 3
Продолжительность : 1 ч. 31 м.
Вид битрейта : Постоянный
Битрейт : 192 Кбит/сек
Каналы : 2 канала
Частота : 48,0 КГц
Метод сжатия : С потерями
Задержка видео : -120 мс.
Размер потока : 126 Мбайт (7%)
Язык : Russian
Скриншоты
Автор Bot
Категория Наши фильмы
InfoHash 9B4C0CD706FE34AF5A5D054BA407730AD4FB882E
Файлы (1)
Показать файлы
Трекера
Показать трекера
Похожие раздачи
Название Добавлен Размер Сид Лич
Норвег (2015) WEB-DLRip 19/03/2018 1.5 Гб 17 0
Норвег (2015) HDTVRip 05/03/2018 1.5 Гб 4 0
Норвег (2015) HDTVRip-AVC 05/03/2018 1.5 Гб 3 0
Норвег (2015) SATRip 04/03/2018 1.4 Гб 4 0
Старики (2015) HDTVRip 20/02/2018 1.5 Гб 1 0
Старики (2015) HDTV 1080i 20/02/2018 6.3 Гб 1 0
Птичка (2015) WEB-DLRip 27/01/2018 1.5 Гб 30 0
Северо-Юг (2015) WEB-DLRip 1080p 19/01/2018 3.8 Гб 11 0
Училка (2015) WEB-DLRip | iTunes 12/01/2018 805.7 Мб 14 0
Главный (2015) WEB-DL 1080p | iTunes 04/01/2018 4.2 Гб 4 1

    Нет комментариев

Войти на сайт

Статистика

  • Всего торрентов: 73670
  • Объёмом: 422.9 Тб
  • Сидов: 2092979
  • Личеров: 167047