A PHP Error was encountered

Severity: Notice

Message: Trying to get property 'id' of non-object

Filename: controllers/Torrent.php

Line Number: 25

Backtrace:

File: /home/torr/www/application/controllers/Torrent.php
Line: 25
Function: _error_handler

File: /home/torr/www/public/index.php
Line: 317
Function: require_once

Муму (1959) SATRip-AVC | 744.3 Мб - ToRR.ws

Подождите, загружаю...

Все раздачи Раздачи по тегам Правила Информация Контакты

Муму (1959) SATRip-AVC

Муму (1959) SATRip-AVC


Мы "В КОНТАКТЕ"


Страна: СССР
Производство: Мосфильм
Жанр: драма, экранизация
Год выпуска: 1959
Продолжительность: 01:07:54
Перевод: Не требуется
Cубтитры: нет
Оригинальная аудиодорожка: русский
Режиссер: Анатолий Бобровский, Евгений Тетерин
В ролях:
Афанасий Кочетков, Нина Гребешкова, Елена Полевицкая, Игорь Безяев, Иван Рыжов, Евгений Тетерин, Леонид Кмит, Варвара Мясникова, Александра Денисова, Инна Фёдорова, Гавриил Белов, Алексей Добронравов...
Об актёрах подробней
Описание:
По одноименной повести И.С.Тургенева.
Глухонемого крестьянина Герасима барыня взяла с собой в Москву дворником. Это занятие его тяготило. Он с детства привык к работе в поле и сильно тосковал по деревне, с трудом привыкал к городскому быту. Глянулась ему прачка Татьяна. Но барыне взбрело в голову выдать девушку за пьяницу башмачника Капитона.

Источник: DVB
Качество видео: SATRip-AVC
Формат видео: MKV
Видео: 692->736x552 (4:3), 25 fps, H264 ~ 1339 kbps avg, 0.140 bit/pixel
Аудио: 48 kHz, Dolby Digital AC3 2.0, 192 kbps
Раздача от:
MediaInfo

Общее
Полное имя : Mumu.1959.SATRip-AVC_[New-team]_by_AVP_Studio.mkv
Формат : Matroska
Версия формата : Version 2
Размер файла : 744 Мбайт
Продолжительность : 1 ч. 7 м.
Общий поток : 1533 Кбит/сек
Дата кодирования : UTC 2017-11-03 11:36:06
Программа кодирования : mkvmerge v6.1.0 ('Old Devil') built on Mar 4 2013 09:10:42
Библиотека кодирования : libebml v1.3.0 + libmatroska v1.4.0
Видео
Идентификатор : 1
Формат : AVC
Формат/Информация : Advanced Video Codec
Профиль формата : High@L4.1
Параметр CABAC формата : Да
Параметр RefFrames формата : 10 кадров
Идентификатор кодека : V_MPEG4/ISO/AVC
Продолжительность : 1 ч. 7 м.
Битрейт : 1339 Кбит/сек
Ширина : 692 пикселя
Высота : 552 пикселя
Соотношение сторон : 4:3
Режим частоты кадров : Постоянный
Частота кадров : 25,000 кадров/сек
Цветовое пространство : YUV
Субдискретизация насыщенности : 4:2:0
Битовая глубина : 8 бит
Тип развёртки : Прогрессивная
Бит/(Пиксели*Кадры) : 0.140
Размер потока : 636 Мбайт (85%)
Библиотека кодирования : x264 core 130 r2273 b3065e6
Настройки программы : cabac=1 / ref=10 / deblock=1:-2:-1 / analyse=0x3:0x113 / me=umh / subme=10 / psy=1 / psy_rd=1.00:0.00 / mixed_ref=1 / me_range=32 / chroma_me=1 / trellis=2 / 8x8dct=1 / cqm=0 / deadzone=21,11 / fast_pskip=1 / chroma_qp_offset=-2 / threads=6 / lookahead_threads=1 / sliced_threads=0 / nr=0 / decimate=0 / interlaced=0 / bluray_compat=0 / constrained_intra=0 / bframes=8 / b_pyramid=2 / b_adapt=2 / b_bias=0 / direct=3 / weightb=1 / open_gop=0 / weightp=2 / keyint=250 / keyint_min=25 / scenecut=40 / intra_refresh=0 / rc=2pass / mbtree=0 / bitrate=1339 / ratetol=1.0 / qcomp=0.60 / qpmin=0 / qpmax=69 / qpstep=4 / cplxblur=20.0 / qblur=0.5 / ip_ratio=1.40 / pb_ratio=1.30 / aq=1:1.00
Default : Да
Forced : Нет
Аудио
Идентификатор : 2
Формат : AC-3
Формат/Информация : Audio Coding 3
Параметр Endianness формата : Big
Идентификатор кодека : A_AC3
Продолжительность : 1 ч. 7 м.
Вид битрейта : Постоянный
Битрейт : 192 Кбит/сек
Каналы : 2 канала
Расположение каналов : Front: L R
Частота : 48,0 КГц
Частота кадров : 31,250 кадров/сек (1536 SPF)
Битовая глубина : 16 бит
Метод сжатия : С потерями
Размер потока : 93,2 Мбайт (13%)
Default : Да
Forced : Нет

Скриншоты


Автор Bot
Категория Наши фильмы
InfoHash 064E140DBF97D087FBB6B22BCBCDF4382B7C7687
Файлы (1)
Показать файлы
Трекера
Показать трекера
Похожие раздачи
Название Добавлен Размер Сид Лич
Муму (1959) SATRip 15/11/2017 744.8 Мб 0 0

    Нет комментариев

Войти на сайт

Статистика

  • Всего торрентов: 73745
  • Объёмом: 423.3 Тб
  • Сидов: 2094369
  • Личеров: 168725