Подождите, загружаю...

Все раздачи Раздачи по тегам Правила Информация Контакты

Муму (1959) SATRip

Муму (1959) SATRip


Мы "В КОНТАКТЕ"


Страна: СССР
Производство: Мосфильм
Жанр: драма, экранизация
Год выпуска: 1959
Продолжительность: 01:07:54
Перевод: Не требуется
Cубтитры: нет
Оригинальная аудиодорожка: русский
Режиссер: Анатолий Бобровский, Евгений Тетерин
В ролях:
Афанасий Кочетков, Нина Гребешкова, Елена Полевицкая, Игорь Безяев, Иван Рыжов, Евгений Тетерин, Леонид Кмит, Варвара Мясникова, Александра Денисова, Инна Фёдорова, Гавриил Белов, Алексей Добронравов...
Об актёрах подробней
Описание:
По одноименной повести И.С.Тургенева.
Глухонемого крестьянина Герасима барыня взяла с собой в Москву дворником. Это занятие его тяготило. Он с детства привык к работе в поле и сильно тосковал по деревне, с трудом привыкал к городскому быту. Глянулась ему прачка Татьяна. Но барыне взбрело в голову выдать девушку за пьяницу башмачника Капитона.

Источник: DVB
Качество видео: SATRip
Формат видео: AVI
Видео: 688x512 (4:3), 25 fps, XviD ~ 1332 kbps avg, 0.151 bit/pixel
Аудио: 48 kHz, Dolby Digital AC3 2.0, 192 kbps
Раздача от:
MediaInfo

Общее
Полное имя : Mumu.1959.SATRip_[New-team]_by_AVP_Studio.avi
Формат : AVI
Формат/Информация : Audio Video Interleave
Размер файла : 745 Мбайт
Продолжительность : 1 ч. 7 м.
Общий поток : 1534 Кбит/сек
Программа кодирования : VirtualDubMod 1.5.10.3 | www.virtualdub-fr.org || (build 2550/release)
Библиотека кодирования : VirtualDubMod build 2550/release
Видео
Идентификатор : 0
Формат : MPEG-4 Visual
Профиль формата : Advanced Simple@L5
Параметр BVOP формата : 1
Параметр QPel формата : Нет
Параметр GMC формата : Без точки перехода
Параметр матрицы формата : Выборочная
Идентификатор кодека : XVID
Идентификатор кодека/Подсказка : XviD
Продолжительность : 1 ч. 7 м.
Битрейт : 1332 Кбит/сек
Ширина : 688 пикселей
Высота : 512 пикселей
Соотношение сторон : 4:3
Частота кадров : 25,000 кадров/сек
Цветовое пространство : YUV
Субдискретизация насыщенности : 4:2:0
Битовая глубина : 8 бит
Тип развёртки : Прогрессивная
Метод сжатия : С потерями
Бит/(Пиксели*Кадры) : 0.151
Размер потока : 647 Мбайт (87%)
Библиотека кодирования : XviD 73
Аудио
Идентификатор : 1
Формат : AC-3
Формат/Информация : Audio Coding 3
Параметр Endianness формата : Big
Идентификатор кодека : 2000
Продолжительность : 1 ч. 7 м.
Вид битрейта : Постоянный
Битрейт : 192 Кбит/сек
Каналы : 2 канала
Расположение каналов : Front: L R
Частота : 48,0 КГц
Частота кадров : 31,250 кадров/сек (1536 SPF)
Битовая глубина : 16 бит
Метод сжатия : С потерями
Размер потока : 93,2 Мбайт (13%)
Выравнивание : Разделение по промежуткам
Продолжительность промежутка : 40 мс. (1,00 видеокадр)
Время предзагрузки промежутка : 500 мс

Скриншоты


Автор Bot
Категория Наши фильмы
InfoHash 758980BA963030D7E904702D626E5138591A2945
Файлы (1)
Показать файлы
Трекера
Показать трекера
Похожие раздачи
Название Добавлен Размер Сид Лич
Муму (1959) SATRip-AVC 15/11/2017 744.3 Мб 4 0

    Нет комментариев

Войти на сайт

Статистика

  • Всего торрентов: 74266
  • Объёмом: 426.7 Тб
  • Сидов: 2144439
  • Личеров: 185917