Подождите, загружаю...

Все раздачи Раздачи по тегам Правила Информация Контакты

Близкие враги / Enemies Closer (2013) BDRip 1080p | A

Близкие враги / Enemies Closer (2013) BDRip 1080p | A


Информация о фильме
Название: А врагов держи еще ближе / Близкие враги / Враг близко / Плохая страна
Оригинальное название: Enemies Closer
Год выхода: 2013
Жанр: боевик, триллер, криминал
Режиссер: Питер Хаймс / Peter Hyams
В ролях: Жан-Клод Ван Дамм, Орландо Джонс, Том Эверетт Скотт, Линзи Коккер, Кристофер Ван Варенберг, Захари Бахаров, Атанас Сребрев, Мэтт Медрано, Йонас Токингтон, Христо Митцков...
О фильме:
Двум заклятым врагам, столкнувшимся в лесу на американо-канадской границе, приходится объединиться в борьбе против наркокурьеров, желающих любой ценой вернуть свой потерянный груз.
Нецензурная лексика присутствует.
Реклама отсутствует.

Страна: США, Канада
Студия: After dark films
Качество: BDRip (1080p)
Видео: MPEG-4 AVC, 9000 Кбит/с, 1920x1080, 25.000 кадр/с
Аудио: Русский (AC3, 6 ch, 640 Кбит/с)
Продолжительность: 01:21:40
Перевод: Авторский, Сергеев Сергей (RUSSIANGUY27)
Субтитры: Русские, английские
Скрытый текст
Общее
Уникальный идентификатор : 206526933265007418016953170055510359046 (0x9B5FA3F8727F1A9A9C59FD204FBBFC06)
Полное имя : D:ЗагрузкиEnemies.Closer.2013.x264.BDRip.(1080p).mkv
Формат : Matroska
Версия формата : Version 2
Размер файла : 5,49 Гбайт
Продолжительность : 1 ч. 21 м.
Общий поток : 9625 Кбит/сек
Дата кодирования : UTC 2017-11-14 18:38:06
Программа кодирования : mkvmerge v5.6.0 ('Kenya Kane') built on May 27 2012 16:44:04
Библиотека кодирования : libebml v1.2.3 + libmatroska v1.3.0
Видео
Идентификатор : 1
Формат : AVC
Формат/Информация : Advanced Video Codec
Профиль формата : High@L4.1
Параметр CABAC формата : Да
Параметр ReFrames формата : 4 кадра
Идентификатор кодека : V_MPEG4/ISO/AVC
Продолжительность : 1 ч. 21 м.
Битрейт : 9000 Кбит/сек
Ширина : 1920 пикселей
Высота : 1080 пикселей
Соотношение сторон : 16:9
Режим частоты кадров : Постоянный
Частота кадров : 25,000 кадров/сек
Цветовое пространство : YUV
Субдискретизация насыщенности : 4:2:0
Битовая глубина : 8 бит
Тип развёртки : Прогрессивная
Бит/(Пиксели*Кадры) : 0.174
Размер потока : 5,02 Гбайт (91%)
Библиотека кодирования : x264 core 136 r2348+704+51 d1baef6 tMod [8-bit@all X86]
Настройки программы : cabac=1 / ref=4 / deblock=1:-3:-3 / analyse=0x3:0x133 / me=umh / subme=11 / psy=1 / fade_compensate=0.00 / psy_rd=1.05:0.05 / mixed_ref=1 / me_range=64 / chroma_me=1 / trellis=2 / 8x8dct=1 / cqm=0 / deadzone=21,11 / fast_pskip=0 / chroma_qp_offset=-3 / threads=12 / lookahead_threads=2 / sliced_threads=0 / nr=0 / decimate=0 / interlaced=0 / bluray_compat=0 / constrained_intra=0 / fgo=0 / bframes=8 / b_pyramid=2 / b_adapt=2 / b_bias=0 / direct=3 / weightb=1 / open_gop=0 / weightp=2 / keyint=250 / keyint_min=25 / scenecut=40 / intra_refresh=0 / rc_lookahead=120 / rc=2pass / mbtree=0 / bitrate=9000 / ratetol=1.0 / qcomp=0.70 / qpmin=0:0:0 / qpmax=69:69:69 / qpstep=4 / cplxblur=20.0 / qblur=0.5 / vbv_maxrate=50000 / vbv_bufsize=50000 / nal_hrd=none / ip_ratio=1.40 / pb_ratio=1.30 / aq=1:0.85 / aq-sensitivity=10.00 / aq-factor=1.00:1.00:1.00 / aq2=0 / aq3=0
Язык : English
Default : Да
Forced : Нет
Аудио
Идентификатор : 2
Формат : AC-3
Формат/Информация : Audio Coding 3
Расширение режима : CM (complete main)
Параметр Endianness формата : Big
Идентификатор кодека : A_AC3
Продолжительность : 1 ч. 21 м.
Вид битрейта : Постоянный
Битрейт : 640 Кбит/сек
Каналы : 6 каналов
Расположение каналов : Front: L C R, Side: L R, LFE
Частота : 48,0 КГц
Частота кадров : 31,250 кадров/сек (1536 spf)
Метод сжатия : С потерями
Размер потока : 374 Мбайт (7%)
Заголовок : Авторский (Сергей Сергеев)
Язык : Russian
Default : Да
Forced : Нет
Текст #1
Идентификатор : 3
Формат : UTF-8
Идентификатор кодека : S_TEXT/UTF8
Идентификатор кодека/Информация : UTF-8 Plain Text
Заголовок : Full (jasinpapa)
Язык : Russian
Default : Нет
Forced : Нет
Текст #2
Идентификатор : 4
Формат : UTF-8
Идентификатор кодека : S_TEXT/UTF8
Идентификатор кодека/Информация : UTF-8 Plain Text
Заголовок : Full
Язык : English
Default : Нет
Forced : Нет
Меню
00:00:00.000 : en:00:00:00.000
00:05:18.040 : en:00:05:18.040
00:11:30.640 : en:00:11:30.640
00:17:17.400 : en:00:17:17.400
00:25:16.600 : en:00:25:16.600
00:32:33.440 : en:00:32:33.440
00:39:45.480 : en:00:39:45.480
00:48:06.400 : en:00:48:06.400
00:56:29.400 : en:00:56:29.400
01:03:02.800 : en:01:03:02.800
01:10:09.800 : en:01:10:09.800
01:16:13.240 : en:01:16:13.240

Скриншоты



Релиз от:
Автор Bot
Категория Зарубежные фильмы
InfoHash 689B62056A0F426B9E2A669C15D5A711DF450A6A
Файлы (1)
Показать файлы
Трекера
Показать трекера

    Нет комментариев

Войти на сайт

Статистика

  • Всего торрентов: 73670
  • Объёмом: 422.9 Тб
  • Сидов: 2092979
  • Личеров: 167047