Подождите, загружаю...

Все раздачи Раздачи по тегам Правила Информация Контакты

Эхо греха (2016) WEB-DLRip 1080p

Эхо греха (2016) WEB-DLRip 1080p

Информация о фильме
Название: Эхо греха
Год выхода: 2016
Жанр: Мелодрама
Режиссер: Максим Демченко
В ролях: Валентина Гарцуева, Елена Побегаева, Руслан Чернецкий, Иван Николаев, Дмитрий Абазовик, Александра Гайдук
О фильме:
Нина Соловьева была абсолютно счастлива. Она ждала ребенка и вот-вот должна была выйти замуж за любимого человека. Но все рушится, когда на мальчишнике накануне свадьбы ее жениха Сергея арестовывают по обвинению в изнасиловании. Сергея сажают в СИЗО, и он погибает в тюремной драке. Нина, которая в этот момент была на большом сроке беременности, теряет и ребенка, и саму возможность иметь детей в будущем. Костя - друг и одноклассник Сергея - уговаривает Нину отомстить людям, которые лишили ее всего. Он рассказывает девушке, что Сергея подставили и оклеветали Алена и Денис - владельцы мотеля "Парадайз", где, якобы, произошло изнасилование. Нина устраивается горничной в этот мотель. Она решает уничтожить своих врагов. Но чем больше Нина узнает их, тем больше проникается к ним симпатией. Как ни странно, Денис и Алена кажутся ей честными и порядочными людьми...

Страна: Россия
Студия: ООО "Тесей Продакшн", Производство Мега Продакшн
Продолжительность: 01:33:08
Перевод: Не требуется
Файл
Кодек: h.264
Качество: WEB-DLRip 1080p
Видео: MPEG-4 AVC, 5120 Кбит/с, 1920x1080, 25,000 кадр/с
Звук: Русский (AC3, 2 ch, 256 Кбит/с)
Субтитры: Нет
Семпл
MI
General
Unique ID : 200291155925003434134745863481769325102 (0x96AEAC6921D651AA8558A2ED7E63F22E)
Complete name : D:uTorrentEho.greha.2016.WEB-DLRip.1080p.MediaClub.mkv
Format : Matroska
Format version : Version 4 / Version 2
File size : 3.49 GiB
Duration : 1 h 33 min
Overall bit rate : 5 368 kb/s
Encoded date : UTC 2017-11-03 23:55:12
Writing application : mkvmerge v17.0.0 ('Be Ur Friend') 64-bit
Writing library : libebml v1.3.5 + libmatroska v1.4.8
Video
ID : 1
Format : AVC
Format/Info : Advanced Video Codec
Format profile : High@L4
Format settings : CABAC / 4 Ref Frames
Format settings, CABAC : Yes
Format settings, RefFrames : 4 frames
Codec ID : V_MPEG4/ISO/AVC
Duration : 1 h 33 min
Bit rate : 5 120 kb/s
Width : 1 920 pixels
Height : 1 080 pixels
Display aspect ratio : 16:9
Frame rate mode : Constant
Frame rate : 25.000 FPS
Color space : YUV
Chroma subsampling : 4:2:0
Bit depth : 8 bits
Scan type : Progressive
Bits/(Pixel*Frame) : 0.099
Stream size : 3.32 GiB (95%)
Title : WEB-DLRip by Silverok
Writing library : x264 core 142
Encoding settings : cabac=1 / ref=3 / deblock=1:0:0 / analyse=0x3:0x113 / me=hex / subme=7 / psy=1 / psy_rd=1.00:0.00 / mixed_ref=1 / me_range=16 / chroma_me=1 / trellis=1 / 8x8dct=1 / cqm=0 / deadzone=21,11 / fast_pskip=1 / chroma_qp_offset=-2 / threads=108 / lookahead_threads=8 / sliced_threads=0 / nr=0 / decimate=1 / interlaced=0 / bluray_compat=0 / constrained_intra=0 / bframes=6 / b_pyramid=2 / b_adapt=1 / b_bias=0 / direct=1 / weightb=1 / open_gop=0 / weightp=2 / keyint=50 / keyint_min=26 / scenecut=0 / intra_refresh=0 / rc_lookahead=40 / rc=2pass / mbtree=1 / bitrate=5120 / ratetol=1.0 / qcomp=0.60 / qpmin=0 / qpmax=69 / qpstep=4 / cplxblur=20.0 / qblur=0.5 / vbv_maxrate=7680 / vbv_bufsize=20480 / nal_hrd=none / filler=0 / ip_ratio=1.40 / aq=1:1.00
Default : Yes
Forced : No
Audio
ID : 2
Format : AC-3
Format/Info : Audio Coding 3
Codec ID : A_AC3
Duration : 1 h 33 min
Bit rate mode : Constant
Bit rate : 256 kb/s
Channel(s) : 2 channels
Channel positions : Front: L R
Sampling rate : 48.0 kHz
Frame rate : 31.250 FPS (1536 SPF)
Bit depth : 16 bits
Compression mode : Lossy
Stream size : 171 MiB (5%)
Language : Russian
Service kind : Complete Main
Default : Yes
Forced : No

Скриншоты

Релиз от: | Silverok
Автор Bot
Категория Наши фильмы
InfoHash FE8C2D09F8F2BB783061B7D58749FF07CC4BFDAD
Файлы (1)
Показать файлы
Трекера
Показать трекера
Похожие раздачи
Название Добавлен Размер Сид Лич
Эхо греха (2016) WEB-DLRip 15/11/2017 1.4 Гб 46 1
Эхо греха (2016) WEB-DLRip-AVC 15/11/2017 1.4 Гб 2 0

    Нет комментариев

Войти на сайт

Статистика

  • Всего торрентов: 73670
  • Объёмом: 422.9 Тб
  • Сидов: 2092979
  • Личеров: 167047