Все раздачи Раздачи по тегам Правила Информация Контакты

Мальчики (1959) SATRip-AVC

Мальчики (1959) SATRip-AVC


Мы "В КОНТАКТЕ"


Страна: СССР
Производство: К/ст им. Довженко
Жанр: детский фильм
Год выпуска: 1959
Продолжительность: 01:09:59
Перевод: Не требуется
Cубтитры: нет
Оригинальная аудиодорожка: русский
Режиссер: Суламифь Цыбульник
В ролях:
Лёня Бабич, Николай Чурсин, Саша Карпов, Лидия Сухаревская, Александр Гумбург, Николай Дупак, Гертруда Двойникова, Валентин Грудинин, Елена Машкара, Наташа Черноусова, Анатолий Зайцев...
Об актёрах подробней
Описание:
Киевские школьники Петя, Игорь и Тимка учатся в одном классе и живут в одном доме. Игорь и Петя – неразлучные друзья. Тимка более замкнут, чем его сверстники. После смерти отца – героя-лётчика, он живёт с мачехой, женщиной нечуткой и ограниченной. То, что жизнь Тимки сложилась не по-детски трудно, сделало его непримиримым ко всякому проявлению избалованности.

Источник: DVB
Качество видео: SATRip-AVC
Формат видео: MKV
Видео: 704->760x570 (4:3), 25 fps, H264 ~ 1294 kbps avg, 0.129 bit/pixel
Аудио: 48 kHz, Dolby Digital AC3 2.0, 192 kbps
Раздача от:
MediaInfo

Общее
Полное имя : Malchiki.1959.SATRip-AVC_[New-team]_by_AVP_Studio.mkv
Формат : Matroska
Версия формата : Version 2
Размер файла : 745 Мбайт
Продолжительность : 1 ч. 9 м.
Общий поток : 1488 Кбит/сек
Дата кодирования : UTC 2017-11-02 14:11:29
Программа кодирования : mkvmerge v6.1.0 ('Old Devil') built on Mar 4 2013 09:10:42
Библиотека кодирования : libebml v1.3.0 + libmatroska v1.4.0
Видео
Идентификатор : 1
Формат : AVC
Формат/Информация : Advanced Video Codec
Профиль формата : High@L4.1
Параметр CABAC формата : Да
Параметр RefFrames формата : 10 кадров
Идентификатор кодека : V_MPEG4/ISO/AVC
Продолжительность : 1 ч. 9 м.
Битрейт : 1294 Кбит/сек
Ширина : 704 пикселя
Высота : 570 пикселей
Соотношение сторон : 4:3
Режим частоты кадров : Постоянный
Частота кадров : 25,000 кадров/сек
Цветовое пространство : YUV
Субдискретизация насыщенности : 4:2:0
Битовая глубина : 8 бит
Тип развёртки : Прогрессивная
Бит/(Пиксели*Кадры) : 0.129
Размер потока : 634 Мбайт (85%)
Библиотека кодирования : x264 core 130 r2273 b3065e6
Настройки программы : cabac=1 / ref=10 / deblock=1:-2:-1 / analyse=0x3:0x113 / me=umh / subme=10 / psy=1 / psy_rd=1.00:0.00 / mixed_ref=1 / me_range=32 / chroma_me=1 / trellis=2 / 8x8dct=1 / cqm=0 / deadzone=21,11 / fast_pskip=1 / chroma_qp_offset=-2 / threads=6 / lookahead_threads=1 / sliced_threads=0 / nr=0 / decimate=0 / interlaced=0 / bluray_compat=0 / constrained_intra=0 / bframes=8 / b_pyramid=2 / b_adapt=2 / b_bias=0 / direct=3 / weightb=1 / open_gop=0 / weightp=2 / keyint=250 / keyint_min=25 / scenecut=40 / intra_refresh=0 / rc=2pass / mbtree=0 / bitrate=1294 / ratetol=1.0 / qcomp=0.60 / qpmin=0 / qpmax=69 / qpstep=4 / cplxblur=20.0 / qblur=0.5 / ip_ratio=1.40 / pb_ratio=1.30 / aq=1:1.00
Default : Да
Forced : Нет
Аудио
Идентификатор : 2
Формат : AC-3
Формат/Информация : Audio Coding 3
Параметр Endianness формата : Big
Идентификатор кодека : A_AC3
Продолжительность : 1 ч. 9 м.
Вид битрейта : Постоянный
Битрейт : 192 Кбит/сек
Каналы : 2 канала
Расположение каналов : Front: L R
Частота : 48,0 КГц
Частота кадров : 31,250 кадров/сек (1536 SPF)
Битовая глубина : 16 бит
Метод сжатия : С потерями
Размер потока : 96,1 Мбайт (13%)
Default : Да
Forced : Нет

Скриншоты


Автор Bot
Категория Наши фильмы
InfoHash F979AD05207BB7993D6449CDDF1357839FDB7473
Файлы (1)
Показать файлы
Трекера
Показать трекера
Похожие раздачи
Название Добавлен Размер Сид Лич
Мальчики (1959) SATRip 15/11/2017 745.1 Мб 1 0

    Нет комментариев

Войти на сайт

Статистика

  • Всего торрентов: 86487
  • Объёмом: 512.4 Тб
  • Сидов: 2679449
  • Личеров: 177041