Все раздачи Раздачи по тегам Правила Информация Контакты

Мальчики (1959) SATRip

Мальчики (1959) SATRip


Мы "В КОНТАКТЕ"


Страна: СССР
Производство: К/ст им. Довженко
Жанр: детский фильм
Год выпуска: 1959
Продолжительность: 01:09:59
Перевод: Не требуется
Cубтитры: нет
Оригинальная аудиодорожка: русский
Режиссер: Суламифь Цыбульник
В ролях:
Лёня Бабич, Николай Чурсин, Саша Карпов, Лидия Сухаревская, Александр Гумбург, Николай Дупак, Гертруда Двойникова, Валентин Грудинин, Елена Машкара, Наташа Черноусова, Анатолий Зайцев...
Об актёрах подробней
Описание:
Киевские школьники Петя, Игорь и Тимка учатся в одном классе и живут в одном доме. Игорь и Петя – неразлучные друзья. Тимка более замкнут, чем его сверстники. После смерти отца – героя-лётчика, он живёт с мачехой, женщиной нечуткой и ограниченной. То, что жизнь Тимки сложилась не по-детски трудно, сделало его непримиримым ко всякому проявлению избалованности.

Источник: DVB
Качество видео: SATRip
Формат видео: AVI
Видео: 704x528 (4:3), 25 fps, XviD ~ 1287 kbps avg, 0.138 bit/pixel
Аудио: 48 kHz, Dolby Digital AC3 2.0, 192 kbps
Раздача от:
MediaInfo

Общее
Полное имя : Malchiki.1959.SATRip_[New-team]_by_AVP_Studio.avi
Формат : AVI
Формат/Информация : Audio Video Interleave
Размер файла : 745 Мбайт
Продолжительность : 1 ч. 9 м.
Общий поток : 1489 Кбит/сек
Программа кодирования : VirtualDubMod 1.5.10.3 | www.virtualdub-fr.org || (build 2550/release)
Библиотека кодирования : VirtualDubMod build 2550/release
Видео
Идентификатор : 0
Формат : MPEG-4 Visual
Профиль формата : Advanced Simple@L5
Параметр BVOP формата : 1
Параметр QPel формата : Нет
Параметр GMC формата : Без точки перехода
Параметр матрицы формата : Выборочная
Идентификатор кодека : XVID
Идентификатор кодека/Подсказка : XviD
Продолжительность : 1 ч. 9 м.
Битрейт : 1287 Кбит/сек
Ширина : 704 пикселя
Высота : 528 пикселей
Соотношение сторон : 4:3
Частота кадров : 25,000 кадров/сек
Цветовое пространство : YUV
Субдискретизация насыщенности : 4:2:0
Битовая глубина : 8 бит
Тип развёртки : Прогрессивная
Метод сжатия : С потерями
Бит/(Пиксели*Кадры) : 0.138
Размер потока : 644 Мбайт (86%)
Библиотека кодирования : XviD 73
Аудио
Идентификатор : 1
Формат : AC-3
Формат/Информация : Audio Coding 3
Параметр Endianness формата : Big
Идентификатор кодека : 2000
Продолжительность : 1 ч. 9 м.
Вид битрейта : Постоянный
Битрейт : 192 Кбит/сек
Каналы : 2 канала
Расположение каналов : Front: L R
Частота : 48,0 КГц
Частота кадров : 31,250 кадров/сек (1536 SPF)
Битовая глубина : 16 бит
Метод сжатия : С потерями
Размер потока : 96,1 Мбайт (13%)
Выравнивание : Разделение по промежуткам
Продолжительность промежутка : 40 мс. (1,00 видеокадр)
Время предзагрузки промежутка : 500 мс

Скриншоты


Автор Bot
Категория Наши фильмы
InfoHash FFF33AB639C7E154522476304F030742DDD5625F
Файлы (1)
Показать файлы
Трекера
Показать трекера
Похожие раздачи
Название Добавлен Размер Сид Лич
Мальчики (1959) SATRip-AVC 15/11/2017 744.7 Мб 6 0

    Нет комментариев

Войти на сайт

Статистика

  • Всего торрентов: 86487
  • Объёмом: 512.4 Тб
  • Сидов: 2677314
  • Личеров: 177014