Все раздачи Раздачи по тегам Правила Информация Контакты

Сверстницы (1959) SATRip

Сверстницы (1959) SATRip


Мы "В КОНТАКТЕ"


Страна: СССР
Производство: Мосфильм
Жанр: мелодрама
Год выпуска: 1959
Продолжительность: 01:18:42
Перевод: Не требуется
Cубтитры: нет
Оригинальная аудиодорожка: русский
Режиссер: Василий Ордынский
В ролях:
Лидия Федосеева-Шукшина, Людмила Крылова, Маргарита Кошелева, Владимир Костин, Всеволод Сафонов, Кирилл Столяров, Владимир Корецкий, Николай Лебедев...
Об актёрах подробней
Описание:
По-разному складываются судьбы трех задушевных подруг: серьезная Таня поступила в медицинский, красивая Кира выбрала театральный, а беззаботная Светлана, провалившись на экзаменах, оказалась на заводе. Каждая из трех девушек встречает свою первую любовь, но счастливой она оказалась только для одной из них…


Источник: DVB
Качество видео: SATRip
Формат видео: AVI
Видео: 688x512 (4:3), 25 fps, XviD ~ 1567 kbps avg, 0.202 bit/pixel
Аудио: 48 kHz, Dolby Digital AC3 2.0, 192 kbps
Раздача от:
MediaInfo

Общее
Полное имя : Sverstnicy.1959.SATRip_[New-team]_by_AVP_Studio.avi
Формат : AVI
Формат/Информация : Audio Video Interleave
Размер файла : 1,09 Гбайт
Продолжительность : 1 ч. 18 м.
Общий поток : 1982 Кбит/сек
Программа кодирования : VirtualDubMod 1.5.10.3 | www.virtualdub-fr.org || (build 2550/release)
Библиотека кодирования : VirtualDubMod build 2550/release
Видео
Идентификатор : 0
Формат : MPEG-4 Visual
Профиль формата : Advanced Simple@L5
Параметр BVOP формата : 1
Параметр QPel формата : Нет
Параметр GMC формата : Без точки перехода
Параметр матрицы формата : Выборочная
Идентификатор кодека : XVID
Идентификатор кодека/Подсказка : XviD
Продолжительность : 1 ч. 18 м.
Битрейт : 1780 Кбит/сек
Ширина : 688 пикселей
Высота : 512 пикселей
Соотношение сторон : 4:3
Частота кадров : 25,000 кадров/сек
Цветовое пространство : YUV
Субдискретизация насыщенности : 4:2:0
Битовая глубина : 8 бит
Тип развёртки : Прогрессивная
Метод сжатия : С потерями
Бит/(Пиксели*Кадры) : 0.202
Размер потока : 1002 Мбайт (90%)
Библиотека кодирования : XviD 73
Аудио
Идентификатор : 1
Формат : AC-3
Формат/Информация : Audio Coding 3
Параметр Endianness формата : Big
Идентификатор кодека : 2000
Продолжительность : 1 ч. 18 м.
Вид битрейта : Постоянный
Битрейт : 192 Кбит/сек
Каналы : 2 канала
Расположение каналов : Front: L R
Частота : 48,0 КГц
Частота кадров : 31,250 кадров/сек (1536 SPF)
Битовая глубина : 16 бит
Метод сжатия : С потерями
Размер потока : 108 Мбайт (10%)
Выравнивание : Разделение по промежуткам
Продолжительность промежутка : 40 мс. (1,00 видеокадр)
Время предзагрузки промежутка : 500 мс

Скриншоты


Автор Bot
Категория Наши фильмы
InfoHash D4917C6498FC2E09E34FF9B37844EA3CD59E493A
Файлы (1)
Показать файлы
Трекера
Показать трекера
Похожие раздачи
Название Добавлен Размер Сид Лич
Сверстницы (1959) SATRip 15/11/2017 745.4 Мб 2 0
Сверстницы (1959) SATRip-AVC 15/11/2017 1.1 Гб 4 0

    Нет комментариев

Войти на сайт

Статистика

  • Всего торрентов: 86487
  • Объёмом: 512.4 Тб
  • Сидов: 2678921
  • Личеров: 177013