Подождите, загружаю...

Все раздачи Раздачи по тегам Правила Информация Контакты

Ссора в Лукашах (1959) SATRip

Ссора в Лукашах (1959) SATRip


Мы "В КОНТАКТЕ"


Страна: СССР
Производство: Ленфильм
Жанр: мюзикл, комедия
Год выпуска: 1959
Продолжительность: 01:28:08
Перевод: Не требуется
Cубтитры: нет
Оригинальная аудиодорожка: русский
Режиссер: Максим Руф
В ролях:
Сергей Плотников, Кирилл Лавров, Леонид Быков, Инга Будкевич, Галина Теплинская, Галина Васильева, Павел Волков, Валентина Телегина, Борис Рыжухин, Георгий Гумилевский...
Об актёрах подробней
Описание:
Виктор Туз (Леонид Быков) никогда не думал, что будет заниматься машинами. Не лежала у парня душа к технике. Истинным его призванием было искусство. Когда же колхозу понадобилось послать человека на курсы механизаторов, другой кандидатуры не нашлось. Но механик из Туза не получился.


Источник: DVB
Качество видео: SATRip
Формат видео: AVI
Видео: 688x512 (4:3), 25 fps, XviD ~ 1567 kbps avg, 0.178 bit/pixel
Аудио: 48 kHz, Dolby Digital AC3 2.0, 192 kbps
Раздача от:
MediaInfo

Общее
Полное имя : Ssora.v.Lukashah.1959.SATRip_[New-team]_by_AVP_Studio.avi
Формат : AVI
Формат/Информация : Audio Video Interleave
Размер файла : 1,09 Гбайт
Продолжительность : 1 ч. 28 м.
Общий поток : 1769 Кбит/сек
Программа кодирования : VirtualDubMod 1.5.10.3 | www.virtualdub-fr.org || (build 2550/release)
Библиотека кодирования : VirtualDubMod build 2550/release
Видео
Идентификатор : 0
Формат : MPEG-4 Visual
Профиль формата : Advanced Simple@L5
Параметр BVOP формата : 1
Параметр QPel формата : Нет
Параметр GMC формата : Без точки перехода
Параметр матрицы формата : Выборочная
Идентификатор кодека : XVID
Идентификатор кодека/Подсказка : XviD
Продолжительность : 1 ч. 28 м.
Битрейт : 1567 Кбит/сек
Ширина : 688 пикселей
Высота : 512 пикселей
Соотношение сторон : 4:3
Частота кадров : 25,000 кадров/сек
Цветовое пространство : YUV
Субдискретизация насыщенности : 4:2:0
Битовая глубина : 8 бит
Тип развёртки : Прогрессивная
Метод сжатия : С потерями
Бит/(Пиксели*Кадры) : 0.178
Размер потока : 988 Мбайт (89%)
Библиотека кодирования : XviD 73
Аудио
Идентификатор : 1
Формат : AC-3
Формат/Информация : Audio Coding 3
Параметр Endianness формата : Big
Идентификатор кодека : 2000
Продолжительность : 1 ч. 28 м.
Вид битрейта : Постоянный
Битрейт : 192 Кбит/сек
Каналы : 2 канала
Расположение каналов : Front: L R
Частота : 48,0 КГц
Частота кадров : 31,250 кадров/сек (1536 SPF)
Битовая глубина : 16 бит
Метод сжатия : С потерями
Размер потока : 121 Мбайт (11%)
Выравнивание : Разделение по промежуткам
Продолжительность промежутка : 40 мс. (1,00 видеокадр)
Время предзагрузки промежутка : 500 мс

Скриншоты


Автор Bot
Категория Наши фильмы
InfoHash 01B521C5EF5D73FCE2A948593E57C30AF2154D81
Файлы (1)
Показать файлы
Трекера
Показать трекера
Похожие раздачи
Название Добавлен Размер Сид Лич
Ссора в Лукашах (1959) SATRip 15/11/2017 745.2 Мб 4 0
Ссора в Лукашах (1959) SATRip-AVC 15/11/2017 1.1 Гб 0 0

    Нет комментариев

Войти на сайт

Статистика

  • Всего торрентов: 73670
  • Объёмом: 422.9 Тб
  • Сидов: 2092979
  • Личеров: 167047