A PHP Error was encountered

Severity: Notice

Message: Trying to get property 'id' of non-object

Filename: controllers/Torrent.php

Line Number: 25

Backtrace:

File: /home/torr/www/application/controllers/Torrent.php
Line: 25
Function: _error_handler

File: /home/torr/www/public/index.php
Line: 317
Function: require_once

Сборник короткометражных фильмов. Арменфильм (1959-1980) DVDRip-AVC | 1.1 Гб - ToRR.ws

Подождите, загружаю...

Все раздачи Раздачи по тегам Правила Информация Контакты

Сборник короткометражных фильмов. Арменфильм (1959-1980) DVDRip-AVC

Сборник короткометражных фильмов. Арменфильм (1959-1980) DVDRip-AVC


Мы "В КОНТАКТЕ"


Страна: СССР
Производство: Арменфильм
Жанр: короткометражка, комедия
Год выпуска: 1959
Продолжительность: 01:19:06 (00:20:33 + 00:20:15 + 00:20:37 + 00:17:41)
Перевод: Не требуется
Cубтитры: нет
Оригинальная аудиодорожка: русский
Режиссер: Арман Манарян / Дмитрий Кесаянц / Амасий Мартиросян / Геннадий Мелконян
В ролях:
01-99 1959
Фрунзик Мкртчян, Мурад Костанян, Арман Котикян, Анатолий Торгомян, Лилия Оганесян, Георгий Чепчян, Джемма Сарибекян, Аветик Джрагацпанян, Татул Дилакян, Артемий Айрапетян, Арам Амирбекян, Маис Карагезян...
Печёнка 1962
Грачья Нерсесян, Цолак Америкян, Арман Котикян, Григорий Сандалджян, Маргарита Мурадян, Вардуш Степанян, Аркадий (Аршавир) Тер-Казарян...
Хозяин и слуга 1963
Фаддей Сарьян, Фрунзе Мкртчян, Сос Саркисян...
Шелковица 1980
Размик Ароян, Леонард Саркисов, Тамара Оганесян, Элеонора Петросян...
Описание:
01-99 1959
Комедия недоразумений, происходящих по вине пьянчужки Гарсевана.
Печёнка 1962
Экранизация одноименного рассказа Атрпета.
О том, в какой кошмар вылилась "благотворительность" богача, купившего как-то говяжью печенку для семьи бедняка.
Хозяин и слуга 1963
Экранизация одноименной сказки Ов.Туманяна.
Как находчивый слуга перехитрил своего скупого хозяина.
Шелковица 1980
По рассказу З.Халафяна.
Две многодетные семьи живут по соседству. Объединяет и одновременно разделяет их большое тутовое дерево - источник их общих радостей и неурядиц…


Источник: DVD5 R5
Качество видео: DVDRip-AVC
Формат видео: MKV
Видео: 716->745x560 (4:3), 25 fps, H264 ~ 1776 kbps avg, 0.177 bit/pixel
Аудио: 48 kHz, Dolby Digital AC3 2.0, 192 kbps
Раздача от:
MediaInfo

Общее
Полное имя : Sbornik.korotkometrazhnyh.filmov.Armenfilm.1959.DVDRip-AVC_[New-team]_by_AVP_Studio.mkv
Формат : Matroska
Версия формата : Version 2
Размер файла : 249 Мбайт
Продолжительность : 17 м. 41 с.
Общий поток : 1969 Кбит/сек
Дата кодирования : UTC 2017-10-29 11:28:08
Программа кодирования : mkvmerge v6.1.0 ('Old Devil') built on Mar 4 2013 09:10:42
Библиотека кодирования : libebml v1.3.0 + libmatroska v1.4.0
Видео
Идентификатор : 1
Формат : AVC
Формат/Информация : Advanced Video Codec
Профиль формата : High@L4.1
Параметр CABAC формата : Да
Параметр RefFrames формата : 10 кадров
Идентификатор кодека : V_MPEG4/ISO/AVC
Продолжительность : 17 м. 41 с.
Битрейт : 1776 Кбит/сек
Ширина : 716 пикселей
Высота : 560 пикселей
Соотношение сторон : 4:3
Режим частоты кадров : Постоянный
Частота кадров : 25,000 кадров/сек
Цветовое пространство : YUV
Субдискретизация насыщенности : 4:2:0
Битовая глубина : 8 бит
Тип развёртки : Прогрессивная
Бит/(Пиксели*Кадры) : 0.177
Размер потока : 220 Мбайт (88%)
Библиотека кодирования : x264 core 130 r2273 b3065e6
Настройки программы : cabac=1 / ref=10 / deblock=1:-2:-1 / analyse=0x3:0x113 / me=umh / subme=10 / psy=1 / psy_rd=1.00:0.00 / mixed_ref=1 / me_range=32 / chroma_me=1 / trellis=2 / 8x8dct=1 / cqm=0 / deadzone=21,11 / fast_pskip=1 / chroma_qp_offset=-2 / threads=6 / lookahead_threads=1 / sliced_threads=0 / nr=0 / decimate=0 / interlaced=0 / bluray_compat=0 / constrained_intra=0 / bframes=8 / b_pyramid=2 / b_adapt=2 / b_bias=0 / direct=3 / weightb=1 / open_gop=0 / weightp=2 / keyint=250 / keyint_min=25 / scenecut=40 / intra_refresh=0 / rc=2pass / mbtree=0 / bitrate=1776 / ratetol=1.0 / qcomp=0.60 / qpmin=0 / qpmax=69 / qpstep=4 / cplxblur=20.0 / qblur=0.5 / ip_ratio=1.40 / pb_ratio=1.30 / aq=1:1.00
Default : Да
Forced : Нет
Аудио
Идентификатор : 2
Формат : AC-3
Формат/Информация : Audio Coding 3
Параметр Endianness формата : Big
Идентификатор кодека : A_AC3
Продолжительность : 17 м. 41 с.
Вид битрейта : Постоянный
Битрейт : 192 Кбит/сек
Каналы : 2 канала
Расположение каналов : Front: L R
Частота : 48,0 КГц
Частота кадров : 31,250 кадров/сек (1536 SPF)
Битовая глубина : 16 бит
Метод сжатия : С потерями
Размер потока : 24,3 Мбайт (10%)
Default : Да
Forced : Нет

Скриншоты


Автор Bot
Категория Наши фильмы
InfoHash CCFB3EDE2926C6E364FC90355F4432EE60C90BA7
Файлы (1)
Показать файлы
Трекера
Показать трекера
Похожие раздачи
Название Добавлен Размер Сид Лич
Сборник короткометражных фильмов. Арменфильм (1959-1980) DVDRip 15/11/2017 1.1 Гб 3 0

    Нет комментариев

Войти на сайт

Статистика

  • Всего торрентов: 74836
  • Объёмом: 431.7 Тб
  • Сидов: 2001182
  • Личеров: 174240