Все раздачи Раздачи по тегам Правила Информация Контакты

Сборник короткометражных фильмов. Арменфильм (1959-1980) DVDRip

Сборник короткометражных фильмов. Арменфильм (1959-1980) DVDRip


Мы "В КОНТАКТЕ"


Страна: СССР
Производство: Арменфильм
Жанр: короткометражка, комедия
Год выпуска: 1959
Продолжительность: 01:19:06 (00:20:33 + 00:20:15 + 00:20:37 + 00:17:41)
Перевод: Не требуется
Cубтитры: нет
Оригинальная аудиодорожка: русский
Режиссер: Арман Манарян / Дмитрий Кесаянц / Амасий Мартиросян / Геннадий Мелконян
В ролях:
01-99 1959
Фрунзик Мкртчян, Мурад Костанян, Арман Котикян, Анатолий Торгомян, Лилия Оганесян, Георгий Чепчян, Джемма Сарибекян, Аветик Джрагацпанян, Татул Дилакян, Артемий Айрапетян, Арам Амирбекян, Маис Карагезян...
Печёнка 1962
Грачья Нерсесян, Цолак Америкян, Арман Котикян, Григорий Сандалджян, Маргарита Мурадян, Вардуш Степанян, Аркадий (Аршавир) Тер-Казарян...
Хозяин и слуга 1963
Фаддей Сарьян, Фрунзе Мкртчян, Сос Саркисян...
Шелковица 1980
Размик Ароян, Леонард Саркисов, Тамара Оганесян, Элеонора Петросян...
Описание:
01-99 1959
Комедия недоразумений, происходящих по вине пьянчужки Гарсевана.
Печёнка 1962
Экранизация одноименного рассказа Атрпета.
О том, в какой кошмар вылилась "благотворительность" богача, купившего как-то говяжью печенку для семьи бедняка.
Хозяин и слуга 1963
Экранизация одноименной сказки Ов.Туманяна.
Как находчивый слуга перехитрил своего скупого хозяина.
Шелковица 1980
По рассказу З.Халафяна.
Две многодетные семьи живут по соседству. Объединяет и одновременно разделяет их большое тутовое дерево - источник их общих радостей и неурядиц…


Источник: DVD5 R5
Качество видео: DVDRip
Формат видео: AVI
Видео: 704x528 (4:3), 25 fps, XviD ~ 1770 kbps avg, 0.190 bit/pixel
Аудио: 48 kHz, Dolby Digital AC3 2.0, 192 kbps
Раздача от:
MediaInfo

Общее
Полное имя : Sbornik.korotkometrazhnyh.filmov.Armenfilm.1959.DVDRip_[New-team]_by_AVP_Studio.avi
Формат : AVI
Формат/Информация : Audio Video Interleave
Размер файла : 286 Мбайт
Продолжительность : 20 м. 15 с.
Общий поток : 1971 Кбит/сек
Программа кодирования : VirtualDubMod 1.5.10.3 | www.virtualdub-fr.org || (build 2550/release)
Библиотека кодирования : VirtualDubMod build 2550/release
Видео
Идентификатор : 0
Формат : MPEG-4 Visual
Профиль формата : Advanced Simple@L5
Параметр BVOP формата : 1
Параметр QPel формата : Нет
Параметр GMC формата : Без точки перехода
Параметр матрицы формата : Выборочная
Идентификатор кодека : XVID
Идентификатор кодека/Подсказка : XviD
Продолжительность : 20 м. 15 с.
Битрейт : 1770 Кбит/сек
Ширина : 704 пикселя
Высота : 528 пикселей
Соотношение сторон : 4:3
Частота кадров : 25,000 кадров/сек
Цветовое пространство : YUV
Субдискретизация насыщенности : 4:2:0
Битовая глубина : 8 бит
Тип развёртки : Прогрессивная
Метод сжатия : С потерями
Бит/(Пиксели*Кадры) : 0.190
Размер потока : 256 Мбайт (90%)
Библиотека кодирования : XviD 73
Аудио
Идентификатор : 1
Формат : AC-3
Формат/Информация : Audio Coding 3
Параметр Endianness формата : Big
Идентификатор кодека : 2000
Продолжительность : 20 м. 15 с.
Вид битрейта : Постоянный
Битрейт : 192 Кбит/сек
Каналы : 2 канала
Расположение каналов : Front: L R
Частота : 48,0 КГц
Частота кадров : 31,250 кадров/сек (1536 SPF)
Битовая глубина : 16 бит
Метод сжатия : С потерями
Размер потока : 27,8 Мбайт (10%)
Выравнивание : Разделение по промежуткам
Продолжительность промежутка : 40 мс. (1,00 видеокадр)
Время предзагрузки промежутка : 500 мс

Скриншоты


Автор Bot
Категория Наши фильмы
InfoHash 2D9F8EF14BB6F4CAD3C6780434ED55C684C67E70
Файлы (1)
Показать файлы
Трекера
Показать трекера
Похожие раздачи
Название Добавлен Размер Сид Лич
Сборник короткометражных фильмов. Арменфильм (1959-1980) DVDRip-AVC 15/11/2017 1.1 Гб 11 0

    Нет комментариев

Войти на сайт

Статистика

  • Всего торрентов: 86487
  • Объёмом: 512.4 Тб
  • Сидов: 2678145
  • Личеров: 177017