A PHP Error was encountered

Severity: Notice

Message: Trying to get property 'id' of non-object

Filename: controllers/Torrent.php

Line Number: 25

Backtrace:

File: /home/torr/www/application/controllers/Torrent.php
Line: 25
Function: _error_handler

File: /home/torr/www/public/index.php
Line: 317
Function: require_once

Шинель (1959) DVDRip-AVC | 1.1 Гб - ToRR.ws

Подождите, загружаю...

Все раздачи Раздачи по тегам Правила Информация Контакты

Шинель (1959) DVDRip-AVC

Шинель (1959) DVDRip-AVC


Мы "В КОНТАКТЕ"


Страна: СССР
Производство: Ленфильм
Жанр: драма, экранизация
Год выпуска: 1959
Продолжительность: 01:10:38
Перевод: Не требуется
Cубтитры: нет
Оригинальная аудиодорожка: русский
Режиссер: Алексей Баталов
В ролях:
Ролан Быков, Юрий Толубеев, Александра Ёжкина, Елена Понсова, Георгий Тейх...
Об актёрах подробней
Описание:
Экранизация одноименной повести Н.В.Гоголя о судьбе "маленького человека", бедного титулярного советника Акакия Акакиевича Башмачкина.
"Когда и в какое время он поступил в департамент и кто определил его, этого никто не мог припомнить. Сколько не переменялось директоров и всяких начальников, его видели все на одном и том же месте, в том же положении, в той же самой должности, тем же чиновником для письма, так что потом уверились, что он, видно, так и родился на свет уже совершенно готовым, в вицмундире и с лысиной на голове. В департаменте не оказывалось к нему никакого уважения. Сторожа не только не вставали с мест, когда он проходил, но даже не глядели на него, как будто бы через приемную пролетела простая муха."


Источник: DVD5 R5
Качество видео: DVDRip-AVC
Формат видео: MKV
Видео: 720->762x572 (4:3), 25 fps, H264 ~ 1758 kbps avg, 0.171 bit/pixel
Аудио: 48 kHz, Dolby Digital AC3 5.1, 448 kbps
Раздача от:
MediaInfo

Общее
Полное имя : Shinel.1959.DVDRip-AVC_[New-team]_by_AVP_Studio.mkv
Формат : Matroska
Версия формата : Version 2
Размер файла : 1,09 Гбайт
Продолжительность : 1 ч. 10 м.
Общий поток : 2208 Кбит/сек
Дата кодирования : UTC 2017-10-26 16:26:11
Программа кодирования : mkvmerge v6.1.0 ('Old Devil') built on Mar 4 2013 09:10:42
Библиотека кодирования : libebml v1.3.0 + libmatroska v1.4.0
Видео
Идентификатор : 1
Формат : AVC
Формат/Информация : Advanced Video Codec
Профиль формата : High@L4.1
Параметр CABAC формата : Да
Параметр RefFrames формата : 10 кадров
Идентификатор кодека : V_MPEG4/ISO/AVC
Продолжительность : 1 ч. 10 м.
Битрейт : 1758 Кбит/сек
Ширина : 720 пикселей
Высота : 572 пикселя
Соотношение сторон : 4:3
Режим частоты кадров : Постоянный
Частота кадров : 25,000 кадров/сек
Цветовое пространство : YUV
Субдискретизация насыщенности : 4:2:0
Битовая глубина : 8 бит
Тип развёртки : Прогрессивная
Бит/(Пиксели*Кадры) : 0.171
Размер потока : 867 Мбайт (78%)
Библиотека кодирования : x264 core 130 r2273 b3065e6
Настройки программы : cabac=1 / ref=10 / deblock=1:-2:-1 / analyse=0x3:0x113 / me=umh / subme=10 / psy=1 / psy_rd=1.00:0.00 / mixed_ref=1 / me_range=32 / chroma_me=1 / trellis=2 / 8x8dct=1 / cqm=0 / deadzone=21,11 / fast_pskip=1 / chroma_qp_offset=-2 / threads=6 / lookahead_threads=1 / sliced_threads=0 / nr=0 / decimate=0 / interlaced=0 / bluray_compat=0 / constrained_intra=0 / bframes=8 / b_pyramid=2 / b_adapt=2 / b_bias=0 / direct=3 / weightb=1 / open_gop=0 / weightp=2 / keyint=250 / keyint_min=25 / scenecut=40 / intra_refresh=0 / rc=2pass / mbtree=0 / bitrate=1758 / ratetol=1.0 / qcomp=0.60 / qpmin=0 / qpmax=69 / qpstep=4 / cplxblur=20.0 / qblur=0.5 / ip_ratio=1.40 / pb_ratio=1.30 / aq=1:1.00
Default : Да
Forced : Нет
Аудио
Идентификатор : 2
Формат : AC-3
Формат/Информация : Audio Coding 3
Параметр Endianness формата : Big
Идентификатор кодека : A_AC3
Продолжительность : 1 ч. 10 м.
Вид битрейта : Постоянный
Битрейт : 448 Кбит/сек
Каналы : 6 каналов
Расположение каналов : Front: L C R, Side: L R, LFE
Частота : 48,0 КГц
Частота кадров : 31,250 кадров/сек (1536 SPF)
Битовая глубина : 16 бит
Метод сжатия : С потерями
Размер потока : 226 Мбайт (20%)
Default : Да
Forced : Нет

Скриншоты


Автор Bot
Категория Наши фильмы
InfoHash 6293CA2183E6C8FCA03E40F4552D46E15CFCCB62
Файлы (1)
Показать файлы
Трекера
Показать трекера
Похожие раздачи
Название Добавлен Размер Сид Лич
Шинель (1959) DVDRip 15/11/2017 1.1 Гб 7 1
Шинель (1959) DVDRip 15/11/2017 745.4 Мб 2 0

    Нет комментариев

Войти на сайт

Статистика

  • Всего торрентов: 73745
  • Объёмом: 423.3 Тб
  • Сидов: 2094369
  • Личеров: 168725