Все раздачи Раздачи по тегам Правила Информация Контакты

Шинель (1959) DVDRip

Шинель (1959) DVDRip


Мы "В КОНТАКТЕ"


Страна: СССР
Производство: Ленфильм
Жанр: драма, экранизация
Год выпуска: 1959
Продолжительность: 01:10:38
Перевод: Не требуется
Cубтитры: нет
Оригинальная аудиодорожка: русский
Режиссер: Алексей Баталов
В ролях:
Ролан Быков, Юрий Толубеев, Александра Ёжкина, Елена Понсова, Георгий Тейх...
Об актёрах подробней
Описание:
Экранизация одноименной повести Н.В.Гоголя о судьбе "маленького человека", бедного титулярного советника Акакия Акакиевича Башмачкина.
"Когда и в какое время он поступил в департамент и кто определил его, этого никто не мог припомнить. Сколько не переменялось директоров и всяких начальников, его видели все на одном и том же месте, в том же положении, в той же самой должности, тем же чиновником для письма, так что потом уверились, что он, видно, так и родился на свет уже совершенно готовым, в вицмундире и с лысиной на голове. В департаменте не оказывалось к нему никакого уважения. Сторожа не только не вставали с мест, когда он проходил, но даже не глядели на него, как будто бы через приемную пролетела простая муха."


Источник: DVD5 R5
Качество видео: DVDRip
Формат видео: AVI
Видео: 704x528 (4:3), 25 fps, XviD ~ 1338 kbps avg, 0.144 bit/pixel
Аудио: 48 kHz, MP3 2.0, 128 kbps
Раздача от:
MediaInfo

Общее
Полное имя : Shinel.1959.DVDRip-745_[New-team]_by_AVP_Studio.avi
Формат : AVI
Формат/Информация : Audio Video Interleave
Размер файла : 745 Мбайт
Продолжительность : 1 ч. 10 м.
Общий поток : 1476 Кбит/сек
Программа кодирования : VirtualDubMod 1.5.10.3 | www.virtualdub-fr.org || (build 2550/release)
Библиотека кодирования : VirtualDubMod build 2550/release
Видео
Идентификатор : 0
Формат : MPEG-4 Visual
Профиль формата : Advanced Simple@L5
Параметр BVOP формата : 1
Параметр QPel формата : Нет
Параметр GMC формата : Без точки перехода
Параметр матрицы формата : Выборочная
Идентификатор кодека : XVID
Идентификатор кодека/Подсказка : XviD
Продолжительность : 1 ч. 10 м.
Битрейт : 1338 Кбит/сек
Ширина : 704 пикселя
Высота : 528 пикселей
Соотношение сторон : 4:3
Частота кадров : 25,000 кадров/сек
Цветовое пространство : YUV
Субдискретизация насыщенности : 4:2:0
Битовая глубина : 8 бит
Тип развёртки : Прогрессивная
Метод сжатия : С потерями
Бит/(Пиксели*Кадры) : 0.144
Размер потока : 676 Мбайт (91%)
Библиотека кодирования : XviD 73
Аудио
Идентификатор : 1
Формат : MPEG Audio
Версия формата : Version 1
Профиль формата : Layer 3
Идентификатор кодека : 55
Идентификатор кодека/Подсказка : MP3
Продолжительность : 1 ч. 10 м.
Вид битрейта : Постоянный
Битрейт : 128 Кбит/сек
Каналы : 2 канала
Частота : 48,0 КГц
Метод сжатия : С потерями
Размер потока : 64,7 Мбайт (9%)
Выравнивание : Соединение по промежуткам
Продолжительность промежутка : 40 мс. (1,00 видеокадр)
Время предзагрузки промежутка : 504 мс.
Библиотека кодирования : LAME3.99r
Настройки программы : -m s -V 4 -q 2 -lowpass 17 -b 128

Скриншоты


Автор Bot
Категория Наши фильмы
InfoHash 5C15D3345474A9C2D36406AF62855E8D58B037E6
Файлы (1)
Показать файлы
Трекера
Показать трекера
Похожие раздачи
Название Добавлен Размер Сид Лич
Шинель (1959) DVDRip 15/11/2017 1.1 Гб 6 0
Шинель (1959) DVDRip-AVC 15/11/2017 1.1 Гб 11 0

    Нет комментариев

Войти на сайт

Статистика

  • Всего торрентов: 86180
  • Объёмом: 510.9 Тб
  • Сидов: 2613012
  • Личеров: 162030