Подождите, загружаю...

Все раздачи Раздачи по тегам Правила Информация Контакты

Звёздный путь: Дискавери / Star Trek: Discovery [01x01-09 из 15] (2017) WEBRip | OmskBird

Звёздный путь: Дискавери / Star Trek: Discovery [01x01-09 из 15] (2017) WEBRip | OmskBird

Информация о фильме
Название: Звёздный путь: Дискавери
Оригинальное название: Star Trek: Discovery
Год выхода: 2017
Жанр: Фантастика
Режиссер: Брайан Фуллер
В ролях: Джейсон Айзекс, Даг Джонс, Шазад Латиф, Сонекуа Мартин-Грин, Молик Панчоли, Энтони Рэпп, Мишель Йео, Кеннет Митчелл, Дэймон Рунян и другие.
О фильме:
За 10 лет до начала истории, описанной в оригинальном сериале «Звёздный путь», экипаж корабля USS Discovery NCC-1031 отправляется в путешествие, чтобы изучать глубокий космос и открыть новые миры и цивилизации.

Страна: США
Продолжительность: ~00:44:00 серия
Перевод: Любительский (многоголосый закадровый) OmskBird
Файл
Кодек: XviD
Качество: WEBRip
Видео: 720x352 (2.05:1), 23.976 fps, build 73 ~1800 kbps avg, 0.30 bit/pixel
Звук:
Аудио rus: AC-3, 2 ch, 48,0 КГц, 192Кбит/сек - OmskBird
Субтитры: отсутствуют
Реклама: присутствует
Семпл
Релиз:

Релиз-группа: OmskBird
Перевод: Николай Исаков
Роли озвучивали: Ольга Федорова, Александр Дасевич, Семён Ващенко, Павел Ярощик
Звукорежиссер: Павел Квентов
Постер: Ксения Просветова
Раздача с рекламными вставками
MediaInfo

General
Complete name : G:FilmsStar.Trek.Discovery.S01.400p.WEBRip.OmskBirdStar.Trek.Discovery.S01E01.WEBRip.OmskBird.avi
Format : AVI
Format/Info : Audio Video Interleave
File size : 623 MiB
Duration : 43mn 28s
Overall bit rate : 2 002 Kbps
Writing application : VirtualDubMod 1.5.10.3 (build 2550/release)
Writing library : VirtualDubMod build 2550/release
Video
ID : 0
Format : MPEG-4 Visual
Format profile : Advanced Simple@L5
Format settings, BVOP : 1
Format settings, QPel : No
Format settings, GMC : No warppoints
Format settings, Matrix : Default (MPEG)
Codec ID : XVID
Codec ID/Hint : XviD
Duration : 43mn 28s
Bit rate : 1 801 Kbps
Width : 720 pixels
Height : 352 pixels
Display aspect ratio : 2.045
Frame rate : 23.976 (23976/1000) fps
Color space : YUV
Chroma subsampling : 4:2:0
Bit depth : 8 bits
Scan type : Progressive
Compression mode : Lossy
Bits/(Pixel*Frame) : 0.296
Stream size : 560 MiB (90%)
Writing library : XviD 73
Audio
ID : 1
Format : AC-3
Format/Info : Audio Coding 3
Mode extension : CM (complete main)
Format settings, Endianness : Big
Codec ID : 2000
Duration : 43mn 28s
Bit rate mode : Constant
Bit rate : 192 Kbps
Channel(s) : 2 channels
Channel positions : Front: L R
Sampling rate : 48.0 KHz
Frame rate : 31.250 fps (1536 spf)
Compression mode : Lossy
Stream size : 59.7 MiB (10%)
Alignment : Split accross interleaves
Interleave, duration : 42 ms (1.00 video frame)
Interleave, preload duration : 500 ms
Скриншоты


Внимание! Раздача ведётся путём добавления новых серий.

Внимание! Раздача ведётся путём добавления новых серий; при каждом добавлении создётся новый торрент. Чтобы начать докачку новой серии, пользователям необходимо сделать следующее:
Остановить скачивание.
Удалить старый торрент у себя из клиента (старые серии удалять не надо).
Скачать новый торрент и запустить его у себя в клиенте вместо старого, при этом указать клиенту путь в старую папку куда и должно происходить скачивание новых серий.
Ваш клиент при этом должен произвести хеширование (проверку) старой папки (если не производит сам - помогите ему сделать это), и будет докачивать только те серии которых у вас ещё нет. Старые серии при этом не удаляются, а продолжают раздаваться!
Eсли вы уже удалили старые серии, то предотвратить повторную закачку старых серий можно, отжав галочку в соответсвующих местах при запуске нового торрента. По возможности, желательно не удалять старые серии как можно дольше чтобы релизёр не столько продолжал раздавать старые серии, а смог сконцентрироваться на новых.

Релиз от: OmskBird
Автор Bot
Категория Сериалы
InfoHash 9B6D5F9F5D98294C70544626A525EDBF73B7195F
Файлы (1)
Показать файлы
Трекера
Показать трекера
Похожие раздачи

    Нет комментариев

Войти на сайт

Статистика

  • Всего торрентов: 73670
  • Объёмом: 422.9 Тб
  • Сидов: 2092979
  • Личеров: 167047