Все раздачи Раздачи по тегам Правила Информация Контакты

Менталист / The Mentalist [S01-07] (2008-2015) HDRip, WEB-DLRip | КПК | ТВ3

Менталист / The Mentalist [S01-07] (2008-2015) HDRip, WEB-DLRip | КПК | ТВ3

Информация о фильме
Название: Менталист
Оригинальное название: The Mentalist
Год выхода: 2008
Жанр: Детектив, Драма, Криминал, Триллер
Режиссер: Дэвид Баррет, Крис Лонг, Дэвид Наттер, Саймон Бейкер, Роксанн Доусон
В ролях: Саймон Бейкер, Самира Армстронг, Джек Коулмэн, Себастьян Роше, Грегори Итцин, Тим Кенг, Овайн Йомэн, Аманда Ригетти, Бодхи Элфмэн, Винн Эверетт, Аластер Маккензи, Крис Таллман, Робин Танни, Майкл Тревино
О фильме:
Патрик Джейн — детектив и независимый консультант из Калифорнийского Бюро Расследований (КБР), он использует свои отточенные, как лезвие, навыки наблюдения для раскрытия тяжких преступлений. В самом Бюро Джейн известен за частые нарушения протокола, а также за его звездное прошлое: он работал медиумом, однако теперь сам признает, что симулировал паранормальные способности. Роль Джейна в раскрытии целой серии загадочных преступлений высоко ценится коллегами. Но суровый старший агент Тереза Лисбон против того, чтоб Джейн работал с ее отрядом, и то вынужденно признает его успехи, то критикует его за театральность, нарциссизм и отсутствие границ.

Страна: США
Студия: Primrose Hill Productions, Warner Bros. Television
Канал: Canadian Television (CTV), Columbia Broadcasting System (CBS), Warner Home Video, ТВ3 Россия
Продолжительность: 149 x ~ 00:43:00
Перевод: Дублированный - ТВ3
Файл
Формат: MP4
Качество: HDRip, WEB-DLRip | КПК
Видео: MPEG-4 AVC (x264), 640x360, ~500 kbps, 23.976 fps
Аудио: AAC LC, 48.0 KHz, 2 ch, 128 Kbps
Субтитры: Нет
Семпл
Скриншоты

MI
Complete name : E:KinoMentalist.AVC.KPK.TB3.GFMentalist.S05.2012-2013.AVC.WEB-DLRip.KPK.TB3.GFMentalist.s05e09.2012.AVC.WEB-DLRip.KPK.TB3.GF.mp4
Format : MPEG-4
Codec ID : M4V (isom/iso2/avc1)
File size : 195 MiB
Duration : 43 min 5 s
Overall bit rate mode : Variable
Overall bit rate : 634 kb/s
Writing application : Lavf53.19.0
Video
ID : 1
Format : AVC
Format/Info : Advanced Video Codec
Format profile : High@L4.1
Format settings, CABAC : Yes
Format settings, ReFrames : 8 frames
Codec ID : avc1
Codec ID/Info : Advanced Video Coding
Duration : 43 min 4 s
Source duration : 14 min 26 s
Bit rate : 500 kb/s
Width : 640 pixels
Height : 360 pixels
Display aspect ratio : 16:9
Frame rate mode : Constant
Frame rate : 23.976 FPS
Color space : YUV
Chroma subsampling : 4:2:0
Bit depth : 8 bits
Scan type : Progressive
Bits/(Pixel*Frame) : 0.091
Stream size : 154 MiB (79%)
Source stream size : 154 MiB (79%)
Writing library : x264 core 148 r2638 7599210
Encoding settings : cabac=1 / ref=8 / deblock=1:-2:-2 / analyse=0x3:0x133 / me=umh / subme=10 / psy=1 / psy_rd=1.00:0.00 / mixed_ref=1 / me_range=24 / chroma_me=1 / trellis=2 / 8x8dct=1 / cqm=0 / deadzone=21,11 / fast_pskip=1 / chroma_qp_offset=-2 / threads=6 / lookahead_threads=1 / sliced_threads=0 / nr=0 / decimate=0 / interlaced=0 / bluray_compat=0 / constrained_intra=0 / bframes=8 / b_pyramid=2 / b_adapt=2 / b_bias=0 / direct=3 / weightb=1 / open_gop=0 / weightp=2 / keyint=240 / keyint_min=121 / scenecut=40 / intra_refresh=0 / rc_lookahead=40 / rc=2pass / mbtree=1 / bitrate=500 / ratetol=1.0 / qcomp=0.60 / qpmin=0 / qpmax=69 / qpstep=4 / cplxblur=20.0 / qblur=0.5 / ip_ratio=1.40 / aq=1:1.00
Menus : 3
mdhd_Duration : 2584920
Audio
ID : 2
Format : AAC
Format/Info : Advanced Audio Codec
Format profile : LC
Codec ID : 40
Duration : 43 min 5 s
Bit rate mode : Variable
Bit rate : 128 kb/s
Channel(s) : 2 channels
Channel positions : Front: L R
Sampling rate : 48.0 kHz
Frame rate : 46.875 FPS (1024 spf)
Compression mode : Lossy
Stream size : 39.4 MiB (20%)
Default : Yes
Alternate group : 1
Menus : 3

Релиз от:
Автор Bot
Категория Сериалы
InfoHash 56F716F05D4D6F036EEF5635F7B932CC481231BF
Файлы (1)
Показать файлы
Трекера
Показать трекера

    Нет комментариев

Войти на сайт

Статистика

  • Всего торрентов: 86180
  • Объёмом: 510.9 Тб
  • Сидов: 2612765
  • Личеров: 162073