Все раздачи Раздачи по тегам Правила Информация Контакты

Симпсоны / The Simpsons [29x01-06 из 22] (2017) HDTVRip 720p | OMSKBIRD

Симпсоны / The Simpsons [29x01-06 из 22] (2017) HDTVRip  720p |  OMSKBIRD

Информация о фильме
Название: Симпсоны
Оригинальное название: The Simpsons
Год выхода: 2017
Жанр: Комедия, сатира
Режиссер: Марк Керклэнд, Стивен Дин Мур, Боб Андерсон
В ролях: Дэн Кастелланета, Джули Кавнер, Нэнси Картрайт, Ярдли Смит, Гарри Ширер, Хэнк Азария, Памела Хейден, Тресс МакНилл, Карл Видерготт, Мэгги Росвэлл и др.
О фильме:
«Симпсоны» - это пародия на всех и вся, и на типичный американский уклад жизни в целом. Главные герои этого мультсериала - показательная в своей типичности семья Симпсонов - обжора и лежебока, недалекий Гомер, его жена-умница домохозяйка Мардж, их дети сорванец Барт, одаренная умная девочка Лиза и совсем еще младенец Мэгги. Каждая серия не только богата юмором, но и высмеивает одну из волнующих современного человека тем, так что сериал с успехом пережил более 25 сезонов и продолжает успешное шествие по экранам. Отрезки, шутки, сами герои Симпсонов стали неотъемлемой частью современной поп-культуры, а их имена стали именами нарицательными.

Страна: США
Продолжительность: ~ 00:22:00 серия
Перевод: Любительский (многоголосый закадровый) | OMSKBIRD records
Файл
Кодек: MPEG-4 AVC/H.264
Качество: HDTVRip 720p
Видео: AVC, 1280x720 (16:9), 23.976 fps, ~3000 kbps
Звук:
Аудио rus: AC-3, 48 KHz, 2 ch, 192 kbps | OMSKBIRD records
[
Реклама: присутствуют аудио вставки рекламы
Семпл
Релиз:

Релиз-группа: OmskBird
Перевод: Екатерина Полева
Роли озвучивали: Павел Ярощик, Станислав Черсков, Дмитрий Виноградов, Алена Соколова
Звукорежиссер: Павел Квентов
MediaInfo:

General
Complete name : G:FilmsThe.Simpsons.S29.720p.OmskBirdThe.Simpsons.S29.E01.720p.HDTVRip.OmskBird.mp4
Format : MPEG-4
Format profile : Base Media
Codec ID : isom (isom)
File size : 504 MiB
Duration : 22mn 15s
Overall bit rate : 3 165 Kbps
Encoded date : UTC 2017-10-02 17:49:35
Tagged date : UTC 2017-10-02 17:49:35
Writing application : Yamb 2.1.0.0 [http://yamb.unite-video.com]
Video
ID : 1
Format : AVC
Format/Info : Advanced Video Codec
Format profile : Main@L3.2
Format settings, CABAC : Yes
Format settings, ReFrames : 3 frames
Codec ID : avc1
Codec ID/Info : Advanced Video Coding
Duration : 22mn 15s
Bit rate : 2 971 Kbps
Maximum bit rate : 6 757 Kbps
Width : 1 280 pixels
Height : 720 pixels
Display aspect ratio : 16:9
Frame rate mode : Constant
Frame rate : 23.976 (24000/1001) fps
Standard : PAL
Color space : YUV
Chroma subsampling : 4:2:0
Bit depth : 8 bits
Scan type : Progressive
Bits/(Pixel*Frame) : 0.134
Stream size : 473 MiB (94%)
Language : English
Encoded date : UTC 2017-10-02 08:16:53
Tagged date : UTC 2017-10-02 17:49:43
Color range : Limited
Color primaries : BT.709
Transfer characteristics : BT.709
Matrix coefficients : BT.709
Audio
ID : 2
Format : AC-3
Format/Info : Audio Coding 3
Mode extension : CM (complete main)
Format settings, Endianness : Big
Codec ID : ac-3
Duration : 22mn 15s
Bit rate mode : Constant
Bit rate : 192 Kbps
Channel(s) : 2 channels
Channel positions : Front: L R
Sampling rate : 48.0 KHz
Frame rate : 31.250 fps (1536 spf)
Bit depth : 16 bits
Compression mode : Lossy
Stream size : 30.6 MiB (6%)
Encoded date : UTC 2017-10-02 17:49:42
Tagged date : UTC 2017-10-02 17:49:43
Скриншоты




Релиз от: OmckBird
Автор Bot
Категория Сериалы
InfoHash FAB226C3D2E0C0930F186B536DE3A746FA014EA3
Файлы (1)
Показать файлы
Трекера
Показать трекера
Похожие раздачи
Название Добавлен Размер Сид Лич
Симпсоны / The Simpsons [29x01-06 из 22] (2017) HDTVRip | OMSKBIRD 15/11/2017 2.3 Гб 0 0

    Нет комментариев

Войти на сайт

Статистика

  • Всего торрентов: 86209
  • Объёмом: 511.0 Тб
  • Сидов: 2599440
  • Личеров: 164427