A PHP Error was encountered

Severity: Notice

Message: Trying to get property 'id' of non-object

Filename: controllers/Torrent.php

Line Number: 25

Backtrace:

File: /home/torr/www/application/controllers/Torrent.php
Line: 25
Function: _error_handler

File: /home/torr/www/public/index.php
Line: 317
Function: require_once

Теория большого взрыва / The Big Bang Theory [11x01-07 из 24] (2017) HDTVRip 1080p | Кураж-Бамбей | 2.3 Гб - ToRR.ws

Подождите, загружаю...

Все раздачи Раздачи по тегам Правила Информация Контакты

Теория большого взрыва / The Big Bang Theory [11x01-07 из 24] (2017) HDTVRip 1080p | Кураж-Бамбей

Теория большого взрыва / The Big Bang Theory [11x01-07 из 24] (2017) HDTVRip 1080p | Кураж-Бамбей

Информация о фильме
Название: Теория большого взрыва
Оригинальное название: The Big Bang Theory
Год выхода: 2017
Жанр: Ситком, комедия
Режиссер: Марк Сендроуски, Питер Чакос, Энтони Джозеф Рич
В ролях: Джонни Галэки, Джим Парсонс, Кейли Куоко, Саймон Хелберг, Кунал Найяр, Майем Биалик, Мелисса Рауш, Кэрол Энн Сьюзи, Кевин Суссман, Арти Манн, Брайан Джордж, Элис Эмтер, Сара Гилберт, Джон Росс Боуи, Уил Уитон, Лори Меткаф, Верни Уотсон-Джонсон, Кристин Барански, Джошуа Малина, Кейси Сэндер, Кэти Леклерк
О фильме:
Два блестящих физика, Леонард и Шелдон, «великие умы», которые понимают, как «работает Вселенная». Но их гениальность ничуть не помогает им общаться с людьми, особенно с женщинами. Всё начинает меняться, когда напротив них поселяется красавица Пенни.
Когда Леонард и Шелдон встречают Пенни, Леонард сразу же начинает интересоваться ею. Он видит в общении с Пенни огромную перспективу, вплоть до любви, однако Шелдон понимает, что мечтам его друга не суждено сбыться.
Стоит также отметить пару странных друзей этих физиков: Воловиц, который любит употреблять фразы на разных языках, включая русский, и Раджеш Кутрапали, теряющий дар речи при виде женщин.

Страна: США
Продолжительность серии: ~ 00:21:00
Перевод: Профессиональный (одноголосый закадровый) | Кураж-Бамбей
Файл
Кодек: x.264
Качество: HDTVRip 1080p
Видео: AVC, 1920x1080 (16:9), 23.976 fps, 9 378 kb/s
Звук 1: AC-3, 48.0 KHz, 2 ch, 192 Kbps, CBR (Russian)
Звук 2: AC-3, 48.0 KHz, 6 ch, 640 Kbps, CBR (English)
Субтитры: Русские, английские
Рекламы нет
MI
General
Unique ID : 214583631480286847595218525564841475764 (0xA16F4DDC6704D3CABE540C482983BEB4)
Complete name : The.Big.Bang.Theory.S11E04.HDTV.1080p.mkv
Format : Matroska
Format version : Version 4 / Version 2
File size : 1.53 GiB
Duration : 20 min 59 s
Overall bit rate : 10.4 Mb/s
Encoded date : UTC 2017-10-20 19:51:26
Writing application : mkvmerge v6.9.1 ('Blue Panther') 64bit built on Apr 18 2014 18:23:38
Writing library : libebml v1.3.0 + libmatroska v1.4.1
Video
ID : 1
Format : AVC
Format/Info : Advanced Video Codec
Format profile : High@L4.1
Format settings, CABAC : Yes
Format settings, RefFrames : 4 frames
Codec ID : V_MPEG4/ISO/AVC
Duration : 20 min 59 s
Bit rate : 9 378 kb/s
Width : 1 920 pixels
Height : 1 080 pixels
Display aspect ratio : 16:9
Frame rate mode : Constant
Frame rate : 23.976 (24000/1001) FPS
Color space : YUV
Chroma subsampling : 4:2:0
Bit depth : 8 bits
Scan type : Progressive
Bits/(Pixel*Frame) : 0.189
Stream size : 1.37 GiB (90%)
Writing library : x264 core 152 r2851 ba24899
Encoding settings : cabac=1 / ref=4 / deblock=1:-2:-2 / analyse=0x3:0x113 / me=umh / subme=11 / psy=1 / psy_rd=1.00:0.00 / mixed_ref=1 / me_range=32 / chroma_me=1 / trellis=2 / 8x8dct=1 / cqm=0 / deadzone=21,11 / fast_pskip=0 / chroma_qp_offset=-2 / threads=12 / lookahead_threads=1 / sliced_threads=0 / nr=0 / decimate=1 / interlaced=0 / bluray_compat=0 / constrained_intra=0 / bframes=5 / b_pyramid=2 / b_adapt=1 / b_bias=0 / direct=3 / weightb=1 / open_gop=0 / weightp=2 / keyint=250 / keyint_min=23 / scenecut=40 / intra_refresh=0 / rc_lookahead=50 / rc=crf / mbtree=1 / crf=17.0 / qcomp=0.60 / qpmin=0 / qpmax=69 / qpstep=4 / ip_ratio=1.40 / aq=1:1.00
Language : English
Default : Yes
Forced : No
Audio #1
ID : 2
Format : AC-3
Format/Info : Audio Coding 3
Format settings, Endianness : Big
Codec ID : A_AC3
Duration : 20 min 59 s
Bit rate mode : Constant
Bit rate : 192 kb/s
Channel(s) : 2 channels
Channel positions : Front: L R
Sampling rate : 48.0 kHz
Frame rate : 31.250 FPS (1536 SPF)
Bit depth : 16 bits
Compression mode : Lossy
Stream size : 28.8 MiB (2%)
Title : Кураж-Бамбей
Language : Russian
Service kind : Complete Main
Default : Yes
Forced : No
Audio #2
ID : 3
Format : AC-3
Format/Info : Audio Coding 3
Format settings, Endianness : Big
Codec ID : A_AC3
Duration : 20 min 59 s
Bit rate mode : Constant
Bit rate : 640 kb/s
Channel(s) : 6 channels
Channel positions : Front: L C R, Side: L R, LFE
Sampling rate : 48.0 kHz
Frame rate : 31.250 FPS (1536 SPF)
Bit depth : 16 bits
Compression mode : Lossy
Stream size : 96.1 MiB (6%)
Title : оригинал
Language : English
Service kind : Complete Main
Default : No
Forced : No
Text #1
ID : 4
Format : UTF-8
Codec ID : S_TEXT/UTF8
Codec ID/Info : UTF-8 Plain Text
Language : Russian
Default : No
Forced : No
Text #2
ID : 5
Format : UTF-8
Codec ID : S_TEXT/UTF8
Codec ID/Info : UTF-8 Plain Text
Language : English
Default : No
Forced : No
Скриншоты


14.11.17 Добавлена 7я серия
Автор Bot
Категория Сериалы
InfoHash E6508785180702739DCBAB308CCDDBFC44A2A5B1
Файлы (1)
Показать файлы
Трекера
Показать трекера
Похожие раздачи
Название Добавлен Размер Сид Лич
Теория большого взрыва / The Big Bang Theory [S11] (2017) WEB-DLRip | КПК | Кураж-Бамбей 16/05/2018 1.8 Гб 9 14
Теория большого взрыва / The Big Bang Theory [S11] (2017) WEB-DL 1080p | Кураж-Бамбей 15/05/2018 21.3 Гб 34 44
Теория большого взрыва / The Big Bang Theory [S11] (2017) WEB-DLRip-AVC | Кураж-Бамбей 15/05/2018 6.3 Гб 20 20
Теория большого взрыва / The Big Bang Theory [S11] (2017) HDTVRip | Кураж-Бамбей 15/05/2018 5.9 Гб 128 126
Теория большого взрыва / The Big Bang Theory [S11] (2017) HDTVRip 720p | Кураж-Бамбей 15/05/2018 16.1 Гб 49 106
Теория большого взрыва / The Big Bang Theory [S11] (2017) WEB-DLRip 720p | Кураж-Бамбей 15/05/2018 16.1 Гб 134 156
Теория большого взрыва / The Big Bang Theory [S11] (2017) WEB-DL 1080p | Кураж-Бамбей 15/05/2018 41.0 Гб 69 73
Теория большого взрыва / The Big Bang Theory [S11] (2017) HDTVRip 720p | SunshineStudio 12/05/2018 10.4 Гб 11 45
Теория большого взрыва / The Big Bang Theory [11x01-23 из 24] (2017) HDTVRip | Кураж-Бамбей 09/05/2018 5.6 Гб 0 0
Теория большого взрыва / The Big Bang Theory [11x01-23 из 24] (2017) WEB-DL 1080p | Кураж-Бамбей 09/05/2018 20.3 Гб 0 0

    Нет комментариев

Войти на сайт

Статистика

  • Всего торрентов: 74836
  • Объёмом: 431.7 Тб
  • Сидов: 2001182
  • Личеров: 174240