Все раздачи Раздачи по тегам Правила Информация Контакты

Обитель лжи / House of Lies [S01-05] (2012 – 2016) WEB-DL, HDTVRip 720p | P

Обитель лжи / House of Lies [S01-05] (2012 – 2016) WEB-DL, HDTVRip 720p | P

Название: Обитель лжи
Оригинальное название: House of Lies
Год выхода: 2012 – 2016
Страна: США
Студия: Cinema Vehicle Services, Crescendo Productions
Продолжительность: 58 x ~ 28:00
Жанр: драма, комедия
Режиссер: Стивен Хопкинс, Мэттью Карнахан, Дэйзи фон Шерлер Майер, ...
В ролях: Дон Чидл, Кристен Белл, Бен Шварц, Джошуа Лосон, Доун Оливери, Донис Леонард мл., Глинн Тёрмен, Гриффин Данн, Грег Джерманн, Мэгалин Эчиканвоке, ...
Перевод:
- Профессиональный (многоголосый, закадровый) Первый канал (1 сезон)
- Профессиональный (многоголосый, закадровый) Novamedia (2,3,4,5 сезоны)
- Профессиональный (многоголосый, закадровый) NewStudio (1,2 сезоны)
- Профессиональный (многоголосный, закадровый) 2x2 (1,2,3 сезон)
О фильме: Необычный и язвительный взгляд на очень успешного и беспощадного консультанта по вопросам управления Марти, который не брезгует никакими средствами, чтобы получить нужную для его клиентов информацию…

Кодек: MPEG4/ISO/AVC
Качество: WEB-DL, HDTVRip 720p
Видео: 1280x720, ~3500 kbps, 23,976 fps
Аудио #1: AC-3, 2 ch, 192 kbps (Rus) - Первый канал (1 сезон)
Аудио #1: AC-3, 2 ch, 192 kbps (Rus) - Novamedia (2,3,4,5 сезоны)
Аудио #2: AC-3, 2 ch, 192 kbps (Rus) - NewStudio (1,2 сезоны)
Аудио #2: AC-3, 2 ch, 192 kbps (Rus) - 2x2 (3 сезон)
Аудио #3: AC-3, 2 ch, 192 kbps (Rus) - 2x2 (1,2 сезон)
Субтитры: нет
MediaInfo первой серии первого сезона
Общее
Уникальный идентификатор : 210709863233681113674408980169264274823 (0x9E853E573139074282EF38B238151D87)
Полное имя : House of Lies E01 S01 2012 WEB-DL 720p Первый NewStudio 2x2.mkv
Формат : Matroska
Версия формата : Version 2
Размер файла : 1,13 Гбайт
Продолжительность : 33 м.
Общий поток : 4845 Кбит/сек
Дата кодирования : UTC 2017-11-13 03:39:08
Программа кодирования : mkvmerge v4.0.0 ('The Stars were mine') сборка от Jun 6 2010 16:18:42
Библиотека кодирования : libebml v1.0.0 + libmatroska v1.0.0
Видео
Идентификатор : 1
Формат : AVC
Формат/Информация : Advanced Video Codec
Профиль формата : High@L3.1
Параметр CABAC формата : Нет
Параметр ReFrames формата : 2 кадра
Параметр GOP формата : N=1
Идентификатор кодека : V_MPEG4/ISO/AVC
Продолжительность : 33 м.
Битрейт : 3981 Кбит/сек
Ширина : 1280 пикселей
Высота : 720 пикселей
Соотношение сторон : 16:9
Режим частоты кадров : Постоянный
Частота кадров : 23,976 кадра/сек
Цветовое пространство : YUV
Субдискретизация насыщенности : 4:2:0
Битовая глубина : 8 бит
Тип развёртки : Прогрессивная
Бит/(Пиксели*Кадры) : 0.180
Размер потока : 951 Мбайт (82%)
Язык : English
Default : Нет
Forced : Нет
Цветовой диапазон : Limited
Основные цвета : BT.709
Характеристики трансфера : BT.709
Коэффициенты матрицы : BT.709
Аудио #1
Идентификатор : 2
Формат : AC-3
Формат/Информация : Audio Coding 3
Расширение режима : CM (complete main)
Параметр Endianness формата : Big
Идентификатор кодека : A_AC3
Продолжительность : 33 м.
Вид битрейта : Постоянный
Битрейт : 192 Кбит/сек
Каналы : 2 канала
Расположение каналов : Front: L R
Частота : 48,0 КГц
Частота кадров : 31,250 кадров/сек (1536 spf)
Метод сжатия : С потерями
Размер потока : 45,9 Мбайт (4%)
Заголовок : Первый канал
Язык : Russian
Default : Нет
Forced : Нет
Аудио #2
Идентификатор : 3
Формат : AC-3
Формат/Информация : Audio Coding 3
Расширение режима : CM (complete main)
Параметр Endianness формата : Big
Идентификатор кодека : A_AC3
Продолжительность : 33 м.
Вид битрейта : Постоянный
Битрейт : 384 Кбит/сек
Каналы : 6 каналов
Расположение каналов : Front: L C R, Side: L R, LFE
Частота : 48,0 КГц
Частота кадров : 31,250 кадров/сек (1536 spf)
Метод сжатия : С потерями
Размер потока : 91,7 Мбайт (8%)
Заголовок : NewStudio
Язык : Russian
Default : Нет
Forced : Нет
Аудио #3
Идентификатор : 4
Формат : AC-3
Формат/Информация : Audio Coding 3
Расширение режима : CM (complete main)
Параметр Endianness формата : Big
Идентификатор кодека : A_AC3
Продолжительность : 33 м.
Вид битрейта : Постоянный
Битрейт : 192 Кбит/сек
Каналы : 2 канала
Расположение каналов : Front: L R
Частота : 48,0 КГц
Частота кадров : 31,250 кадров/сек (1536 spf)
Метод сжатия : С потерями
Размер потока : 45,9 Мбайт (4%)
Заголовок : 2x2
Язык : Russian
Default : Нет
Forced : Нет

MediaInfo первой серии второго сезона
Общее
Уникальный идентификатор : 200952529867511688839809965508793609990 (0x972E0CA9E240E8758F632D3EFDB22F06)
Полное имя : House of Lies E01 S02 2013 WEB-DL 720p Novamedia NewStudio 2x2.mkv
Формат : Matroska
Версия формата : Version 2
Размер файла : 964 Мбайт
Продолжительность : 27 м.
Общий поток : 4875 Кбит/сек
Дата кодирования : UTC 2017-11-13 04:07:37
Программа кодирования : mkvmerge v4.0.0 ('The Stars were mine') сборка от Jun 6 2010 16:18:42
Библиотека кодирования : libebml v1.0.0 + libmatroska v1.0.0
Видео
Идентификатор : 1
Формат : AVC
Формат/Информация : Advanced Video Codec
Профиль формата : High@L3.1
Параметр CABAC формата : Нет
Параметр ReFrames формата : 2 кадра
Параметр GOP формата : N=1
Идентификатор кодека : V_MPEG4/ISO/AVC
Продолжительность : 27 м.
Битрейт : 4010 Кбит/сек
Ширина : 1274 пикселя
Высота : 720 пикселей
Соотношение сторон : 16:9
Режим частоты кадров : Постоянный
Частота кадров : 23,976 кадра/сек
Цветовое пространство : YUV
Субдискретизация насыщенности : 4:2:0
Битовая глубина : 8 бит
Тип развёртки : Прогрессивная
Бит/(Пиксели*Кадры) : 0.182
Размер потока : 793 Мбайт (82%)
Язык : English
Default : Нет
Forced : Нет
Цветовой диапазон : Limited
Основные цвета : BT.709
Характеристики трансфера : BT.709
Коэффициенты матрицы : BT.709
Аудио #1
Идентификатор : 2
Формат : AC-3
Формат/Информация : Audio Coding 3
Расширение режима : CM (complete main)
Параметр Endianness формата : Big
Идентификатор кодека : A_AC3
Продолжительность : 27 м.
Вид битрейта : Постоянный
Битрейт : 384 Кбит/сек
Каналы : 6 каналов
Расположение каналов : Front: L C R, Side: L R, LFE
Частота : 48,0 КГц
Частота кадров : 31,250 кадров/сек (1536 spf)
Метод сжатия : С потерями
Размер потока : 75,9 Мбайт (8%)
Заголовок : Novamedia
Язык : Russian
Default : Нет
Forced : Нет
Аудио #2
Идентификатор : 3
Формат : AC-3
Формат/Информация : Audio Coding 3
Расширение режима : CM (complete main)
Параметр Endianness формата : Big
Идентификатор кодека : A_AC3
Продолжительность : 27 м.
Вид битрейта : Постоянный
Битрейт : 192 Кбит/сек
Каналы : 2 канала
Расположение каналов : Front: L R
Частота : 48,0 КГц
Частота кадров : 31,250 кадров/сек (1536 spf)
Метод сжатия : С потерями
Размер потока : 38,0 Мбайт (4%)
Заголовок : NewStudio
Язык : Russian
Default : Нет
Forced : Нет
Аудио #3
Идентификатор : 4
Формат : AC-3
Формат/Информация : Audio Coding 3
Расширение режима : CM (complete main)
Параметр Endianness формата : Big
Идентификатор кодека : A_AC3
Продолжительность : 27 м.
Вид битрейта : Постоянный
Битрейт : 192 Кбит/сек
Каналы : 2 канала
Расположение каналов : Front: L R
Частота : 48,0 КГц
Частота кадров : 31,250 кадров/сек (1536 spf)
Метод сжатия : С потерями
Размер потока : 38,0 Мбайт (4%)
Заголовок : 2x2
Язык : Russian
Default : Нет
Forced : Нет

MediaInfo первой серии третьего сезона
Общее
Уникальный идентификатор : 254902583854667239672937534894509450220 (0xBFC473B0AF2D264E9A1FC03B58A4E3EC)
Полное имя : House of Lies E01 S03 2014 HDTVRip 720p Novamedia 2x2.mkv
Формат : Matroska
Версия формата : Version 2
Размер файла : 1,38 Гбайт
Продолжительность : 27 м.
Общий поток : 7208 Кбит/сек
Дата кодирования : UTC 2017-11-13 04:38:57
Программа кодирования : mkvmerge v4.0.0 ('The Stars were mine') сборка от Jun 6 2010 16:18:42
Библиотека кодирования : libebml v1.0.0 + libmatroska v1.0.0
Видео
Идентификатор : 1
Формат : AVC
Формат/Информация : Advanced Video Codec
Профиль формата : High@L4.1
Параметр CABAC формата : Да
Параметр ReFrames формата : 9 кадров
Идентификатор кодека : V_MPEG4/ISO/AVC
Продолжительность : 27 м.
Битрейт : 6489 Кбит/сек
Ширина : 1280 пикселей
Высота : 720 пикселей
Соотношение сторон : 16:9
Режим частоты кадров : Постоянный
Частота кадров : 23,976 (24000/1001) кадра/сек
Цветовое пространство : YUV
Субдискретизация насыщенности : 4:2:0
Битовая глубина : 8 бит
Тип развёртки : Прогрессивная
Бит/(Пиксели*Кадры) : 0.294
Размер потока : 1,25 Гбайт (90%)
Библиотека кодирования : x264 core 140 r2377 1ca7bb9
Настройки программы : cabac=1 / ref=9 / deblock=1:-2:-2 / analyse=0x3:0x113 / me=umh / subme=10 / psy=1 / psy_rd=1.05:0.10 / mixed_ref=1 / me_range=48 / chroma_me=1 / trellis=2 / 8x8dct=1 / cqm=0 / deadzone=21,11 / fast_pskip=0 / chroma_qp_offset=-3 / threads=6 / lookahead_threads=1 / sliced_threads=0 / nr=0 / decimate=0 / interlaced=0 / bluray_compat=0 / constrained_intra=0 / bframes=7 / b_pyramid=2 / b_adapt=2 / b_bias=0 / direct=3 / weightb=1 / open_gop=0 / weightp=2 / keyint=240 / keyint_min=22 / scenecut=40 / intra_refresh=0 / rc_lookahead=175 / rc=crf / mbtree=1 / crf=16.0 / qcomp=0.75 / qpmin=0 / qpmax=66 / qpstep=10 / vbv_maxrate=50000 / vbv_bufsize=62500 / crf_max=0.0 / nal_hrd=none / filler=0 / ip_ratio=1.40 / aq=1:0.70
Язык : English
Default : Нет
Forced : Нет
Аудио #1
Идентификатор : 2
Формат : AC-3
Формат/Информация : Audio Coding 3
Расширение режима : CM (complete main)
Параметр Endianness формата : Big
Идентификатор кодека : A_AC3
Продолжительность : 27 м.
Вид битрейта : Постоянный
Битрейт : 384 Кбит/сек
Каналы : 6 каналов
Расположение каналов : Front: L C R, Side: L R, LFE
Частота : 48,0 КГц
Частота кадров : 31,250 кадров/сек (1536 spf)
Метод сжатия : С потерями
Размер потока : 75,5 Мбайт (5%)
Заголовок : Novamedia
Язык : Russian
Default : Нет
Forced : Нет
Аудио #2
Идентификатор : 3
Формат : AC-3
Формат/Информация : Audio Coding 3
Расширение режима : CM (complete main)
Параметр Endianness формата : Big
Идентификатор кодека : A_AC3
Продолжительность : 27 м.
Вид битрейта : Постоянный
Битрейт : 192 Кбит/сек
Каналы : 2 канала
Расположение каналов : Front: L R
Частота : 48,0 КГц
Частота кадров : 31,250 кадров/сек (1536 spf)
Метод сжатия : С потерями
Размер потока : 37,7 Мбайт (3%)
Заголовок : 2x2
Язык : Russian
Default : Нет
Forced : Нет

MediaInfo первой серии четвёртого сезона
Общее
Уникальный идентификатор : 243944948142280657481947899374902576065 (0xB7861689D98C48E89D95DC09376603C1)
Полное имя : House of Lies E01 S04 2014 HDTVRip 720p Novamedia.mkv
Формат : Matroska
Версия формата : Version 2
Размер файла : 897 Мбайт
Продолжительность : 28 м.
Общий поток : 4386 Кбит/сек
Дата кодирования : UTC 2015-04-03 12:16:08
Программа кодирования : mkvmerge v4.0.0 ('The Stars were mine') сборка от Jun 6 2010 16:18:42
Библиотека кодирования : libebml v1.0.0 + libmatroska v1.0.0
Видео
Идентификатор : 1
Формат : AVC
Формат/Информация : Advanced Video Codec
Профиль формата : High@L4.1
Параметр CABAC формата : Да
Параметр ReFrames формата : 5 кадров
Идентификатор кодека : V_MPEG4/ISO/AVC
Продолжительность : 28 м.
Битрейт : 4107 Кбит/сек
Ширина : 1280 пикселей
Высота : 720 пикселей
Соотношение сторон : 16:9
Режим частоты кадров : Постоянный
Частота кадров : 23,976 (24000/1001) кадра/сек
Цветовое пространство : YUV
Субдискретизация насыщенности : 4:2:0
Битовая глубина : 8 бит
Тип развёртки : Прогрессивная
Бит/(Пиксели*Кадры) : 0.186
Размер потока : 840 Мбайт (94%)
Библиотека кодирования : x264 core 142 r2491 24e4fed
Настройки программы : cabac=1 / ref=5 / deblock=1:0:0 / analyse=0x3:0x113 / me=umh / subme=8 / psy=1 / psy_rd=1.00:0.00 / mixed_ref=1 / me_range=16 / chroma_me=1 / trellis=1 / 8x8dct=1 / cqm=0 / deadzone=21,11 / fast_pskip=1 / chroma_qp_offset=-2 / threads=18 / lookahead_threads=3 / sliced_threads=0 / nr=0 / decimate=1 / interlaced=0 / bluray_compat=0 / constrained_intra=0 / bframes=3 / b_pyramid=2 / b_adapt=2 / b_bias=0 / direct=3 / weightb=1 / open_gop=0 / weightp=2 / keyint=250 / keyint_min=23 / scenecut=40 / intra_refresh=0 / rc_lookahead=50 / rc=crf / mbtree=1 / crf=18.0 / qcomp=0.60 / qpmin=0 / qpmax=69 / qpstep=4 / ip_ratio=1.40 / aq=1:1.00
Язык : English
Default : Нет
Forced : Нет
Цветовой диапазон : Limited
Коэффициенты матрицы : BT.709
Аудио
Идентификатор : 2
Формат : AC-3
Формат/Информация : Audio Coding 3
Расширение режима : CM (complete main)
Параметр Endianness формата : Big
Идентификатор кодека : A_AC3
Продолжительность : 28 м.
Вид битрейта : Постоянный
Битрейт : 192 Кбит/сек
Каналы : 2 канала
Расположение каналов : Front: L R
Частота : 48,0 КГц
Частота кадров : 31,250 кадров/сек (1536 spf)
Метод сжатия : С потерями
Размер потока : 39,3 Мбайт (4%)
Заголовок : Novamedia
Язык : Russian
Default : Нет
Forced : Нет

MediaInfo первой серии пятого сезона
Общее
Уникальный идентификатор : 174373975077056424947760709178621384611 (0x832F34BD3869EA2C8443872D610757A3)
Полное имя : House of Lies E01 S05 2016 HDTVRip 720p Novamedia.mkv
Формат : Matroska
Версия формата : Version 2
Размер файла : 753 Мбайт
Продолжительность : 27 м.
Общий поток : 3872 Кбит/сек
Дата кодирования : UTC 2017-11-07 09:18:05
Программа кодирования : mkvmerge v4.0.0 ('The Stars were mine') сборка от Jun 6 2010 16:18:42
Библиотека кодирования : libebml v1.0.0 + libmatroska v1.0.0
Видео
Идентификатор : 1
Формат : AVC
Формат/Информация : Advanced Video Codec
Профиль формата : High@L4.1
Параметр CABAC формата : Да
Параметр ReFrames формата : 5 кадров
Идентификатор кодека : V_MPEG4/ISO/AVC
Продолжительность : 27 м.
Битрейт : 3603 Кбит/сек
Ширина : 1280 пикселей
Высота : 720 пикселей
Соотношение сторон : 16:9
Режим частоты кадров : Постоянный
Частота кадров : 23,976 (24000/1001) кадра/сек
Цветовое пространство : YUV
Субдискретизация насыщенности : 4:2:0
Битовая глубина : 8 бит
Тип развёртки : Прогрессивная
Бит/(Пиксели*Кадры) : 0.163
Размер потока : 701 Мбайт (93%)
Библиотека кодирования : x264 core 148 r2665 a01e339
Настройки программы : cabac=1 / ref=5 / deblock=1:0:0 / analyse=0x3:0x113 / me=umh / subme=8 / psy=1 / psy_rd=1.00:0.00 / mixed_ref=1 / me_range=16 / chroma_me=1 / trellis=1 / 8x8dct=1 / cqm=0 / deadzone=21,11 / fast_pskip=1 / chroma_qp_offset=-2 / threads=22 / lookahead_threads=3 / sliced_threads=0 / nr=0 / decimate=1 / interlaced=0 / bluray_compat=0 / constrained_intra=0 / bframes=3 / b_pyramid=2 / b_adapt=2 / b_bias=0 / direct=3 / weightb=1 / open_gop=0 / weightp=2 / keyint=250 / keyint_min=23 / scenecut=40 / intra_refresh=0 / rc_lookahead=50 / rc=crf / mbtree=1 / crf=18.0 / qcomp=0.60 / qpmin=0 / qpmax=69 / qpstep=4 / ip_ratio=1.40 / aq=1:1.00
Язык : English
Default : Нет
Forced : Нет
Цветовой диапазон : Limited
Коэффициенты матрицы : BT.709
Аудио
Идентификатор : 2
Формат : AC-3
Формат/Информация : Audio Coding 3
Расширение режима : CM (complete main)
Параметр Endianness формата : Big
Идентификатор кодека : A_AC3
Продолжительность : 27 м.
Вид битрейта : Постоянный
Битрейт : 192 Кбит/сек
Каналы : 2 канала
Расположение каналов : Front: L R
Частота : 48,0 КГц
Частота кадров : 31,250 кадров/сек (1536 spf)
Метод сжатия : С потерями
Размер потока : 37,3 Мбайт (5%)
Заголовок : Novamedia
Язык : Russian
Default : Нет
Forced : Нет


Автор Bot
Категория Сериалы
InfoHash F35BDDB639AB1E1EFDA8475F68F42C6D9931DF53
Файлы (1)
Показать файлы
Трекера
Показать трекера
Похожие раздачи
Название Добавлен Размер Сид Лич
Обитель лжи / House of Lies [S02] (2013) WEB-DL 1080p | Amedia, 2x2 17/07/2018 29.3 Гб 0 0
Обитель лжи / House of Lies [S01] (2012) WEB-DL 1080p | Первый канал, 2x2 23/02/2018 27.1 Гб 0 1

    Нет комментариев

Войти на сайт

Статистика

  • Всего торрентов: 86190
  • Объёмом: 510.9 Тб
  • Сидов: 2599508
  • Личеров: 164263