A PHP Error was encountered

Severity: Notice

Message: Trying to get property 'id' of non-object

Filename: controllers/Torrent.php

Line Number: 25

Backtrace:

File: /home/torr/www/application/controllers/Torrent.php
Line: 25
Function: _error_handler

File: /home/torr/www/public/index.php
Line: 317
Function: require_once

Мерцающий / The Glimmer Man (1996) WEB-DL 1080p | D, P, P2, A | 7.4 Гб - ToRR.ws

Подождите, загружаю...

Все раздачи Раздачи по тегам Правила Информация Контакты

Мерцающий / The Glimmer Man (1996) WEB-DL 1080p | D, P, P2, A

Мерцающий / The Glimmer Man (1996) WEB-DL 1080p | D, P, P2, A

Информация о фильме
✧ Название: Мерцающий
✧ Оригинальное название: The Glimmer Man
✧ Год выхода: 1996
Жанр: боевик, триллер, драма, комедия, криминал
✧ Выпущено: США, Warner Bros. Pictures
✧ Продолжительность: 01:31:22
✧ Перевод: Дублированный, профессиональный многоголосый, профессиональный двухголосый, авторский одноголосый
✧ Режиссер: Джон Грэй
✧ В ролях: Стивен Сигал, Кинен Айвори Уэйанс, Джон М.Джексон, Боб Гантон, Брайан Кокс, Мишель Джонсон, Стивен Тоболовски, Питер Джейсон, Райан Катрона, Ричард Гант
✧ О фильме:
Перед полицейским управлением Лос-Анджелеса поставлена задача: найти и обезвредить преступника, на счету которого немало жертв. Непосредственно по следу убийцы идут два сыщика: Джек Коул и Джим Кэмпбелл. В таком ответственном и рискованном деле, как охота на убийцу, от партнера зависит многое, а иногда все. Однако именно эти двое полицейских решительно неспособны понять друг друга. Суровый и немногословный Коул, воспитанный на восточной философии и боевых искусствах,не может не удивляться своему напарнику, балагуру и шутнику. А Кэмпбелла, как человека здравомыслящего и житейски опытного, раздражает постоянная склонность партнера к мордобою и прочим резким действиям. Порой ему вообще начинает казаться, что преступник, которого они ищут, не кто иной, как его напарник Коул.

Файл
✧ Качество: WEB-DL 1080p
✧ Видео: MPEG4 AVC, 1920x1080 (16:9), 23.976 fps, 8317 kbps, 0.167 bpp
✧ Аудио 1: Russian: 48 kHz, AC3, 2.0 ch, 192 kbps - DUB, Варус-Видео
✧ Аудио 2: Russian: 48 kHz, AC3, 5.1 ch, 384 kbps - DUB, Мост-Видео
✧ Аудио 3: Russian: 48 kHz, AC3, 2.0 ch, 192 kbps - MVO, OPT
✧ Аудио 4: Russian: 48 kHz, AC3, 2.0 ch, 192 kbps - MVO, Первый канал
✧ Аудио 5: Russian: 48 kHz, AC3, 2.0 ch, 192 kbps - MVO, Россия, Рен-ТВ, ТВ3
✧ Аудио 6: Russian: 48 kHz, AC3, 2.0 ch, 192 kbps - DVO, HTB
✧ Аудио 7: Russian: 48 kHz, AC3, 5.1 ch, 384 kbps - AVO, Е. Гаевский
✧ Аудио 8: Russian: 48 kHz, AC3, 5.1 ch, 384 kbps - AVO, А. Гаврилов
✧ Аудио 9: Russian: 48 kHz, AC3, 2.0 ch, 192 kbps - AVO, С. Визгунов
✧ Аудио 10: Russian: 48 kHz, AC3, 2.0 ch, 192 kbps - AVO, А. Кашкин
✧ Аудио 11: English: 48 kHz, AC3, 5.1 ch, 384 kbps - Оригинал, DVD
✧ Аудио 12: English: 48 kHz, E-AC3, 2.0 ch, 224 kbps - Оригинал, WEB-DL
✧ Субтитры: Русские, английские
✧ Навигация по главам: есть
Примечание
P.S: Переводы ОРТ и Первый канал одинаковые по смыслу но разные по тембру звучания.
• Перевод ОРТ или очищен или запись со спутника, так что оставлены обе дорожки.
Скриншоты

MediaInfo
Общее
Уникальный идентификатор : 233371278630340519359796146992968672527 (0xAF91AC61CE805E40B9D4D07B2880A50F)
Полное имя : The.Glimmer.Man.1996.WEB-DL.1080p.mkv
Формат : Matroska
Версия формата : Version 2
Размер файла : 7,44 Гбайт
Продолжительность : 1 ч. 31 м.
Режим общего битрейта : Переменный
Общий поток : 11,7 Мбит/сек
Дата кодирования : UTC 2016-09-08 19:50:00
Программа кодирования : mkvmerge v8.3.0 ('Over the Horizon') 64bit
Библиотека кодирования : libebml v1.3.1 + libmatroska v1.4.2
Обложка : Yes
Attachments : cover.jpg
Видео
Идентификатор : 1
Формат : AVC
Формат/Информация : Advanced Video Codec
Профиль формата : High@L4
Параметр CABAC формата : Да
Параметр RefFrames формата : 4 кадра
Идентификатор кодека : V_MPEG4/ISO/AVC
Продолжительность : 1 ч. 31 м.
Вид битрейта : Переменный
Битрейт : 8317 Кбит/сек
Максимальный битрейт : 15,0 Мбит/сек
Ширина : 1920 пикселей
Высота : 1080 пикселей
Соотношение сторон : 16:9
Режим частоты кадров : Постоянный
Частота кадров : 23,976 (24000/1001) кадра/сек
Цветовое пространство : YUV
Субдискретизация насыщенности : 4:2:0
Битовая глубина : 8 бит
Тип развёртки : Прогрессивная
Бит/(Пиксели*Кадры) : 0.167
Размер потока : 5,31 Гбайт (71%)
Библиотека кодирования : x264 core 148 r2623 d5b2374
Настройки программы : cabac=1 / ref=4 / deblock=1:-1:-1 / analyse=0x3:0x133 / me=umh / subme=9 / psy=1 / psy_rd=1.00:0.15 / mixed_ref=1 / me_range=24 / chroma_me=1 / trellis=2 / 8x8dct=1 / cqm=0 / deadzone=21,11 / fast_pskip=1 / chroma_qp_offset=-3 / threads=34 / lookahead_threads=5 / sliced_threads=0 / nr=150 / decimate=1 / interlaced=0 / bluray_compat=0 / constrained_intra=0 / bframes=8 / b_pyramid=2 / b_adapt=2 / b_bias=0 / direct=3 / weightb=1 / open_gop=0 / weightp=2 / keyint=120 / keyint_min=61 / scenecut=0 / intra_refresh=0 / rc_lookahead=120 / rc=crf / mbtree=1 / crf=18.0 / qcomp=0.60 / qpmin=0 / qpmax=69 / qpstep=4 / vbv_maxrate=15000 / vbv_bufsize=31250 / crf_max=0.0 / nal_hrd=vbr / filler=0 / ip_ratio=1.40 / aq=3:1.00
Default : Да
Forced : Нет
Цветовой диапазон : Limited
Основные цвета : BT.709
Характеристики трансфера : BT.709
Коэффициенты матрицы : BT.709
Аудио #1
Идентификатор : 2
Формат : AC-3
Формат/Информация : Audio Coding 3
Параметр Endianness формата : Big
Идентификатор кодека : A_AC3
Продолжительность : 1 ч. 31 м.
Вид битрейта : Постоянный
Битрейт : 192 Кбит/сек
Каналы : 2 канала
Расположение каналов : Front: L R
Частота : 48,0 КГц
Частота кадров : 31,250 кадров/сек (1536 SPF)
Битовая глубина : 16 бит
Метод сжатия : С потерями
Размер потока : 125 Мбайт (2%)
Заголовок : Дубляж, Варус-Видео
Язык : Russian
Default : Да
Forced : Нет
Аудио #2
Идентификатор : 3
Формат : AC-3
Формат/Информация : Audio Coding 3
Параметр Endianness формата : Big
Идентификатор кодека : A_AC3
Продолжительность : 1 ч. 31 м.
Вид битрейта : Постоянный
Битрейт : 384 Кбит/сек
Каналы : 6 каналов
Расположение каналов : Front: L C R, Side: L R, LFE
Частота : 48,0 КГц
Частота кадров : 31,250 кадров/сек (1536 SPF)
Битовая глубина : 16 бит
Метод сжатия : С потерями
Размер потока : 251 Мбайт (3%)
Заголовок : Дубляж, Мост-Видео
Язык : Russian
Default : Нет
Forced : Нет
Аудио #3
Идентификатор : 4
Формат : AC-3
Формат/Информация : Audio Coding 3
Параметр Endianness формата : Big
Идентификатор кодека : A_AC3
Продолжительность : 1 ч. 31 м.
Вид битрейта : Постоянный
Битрейт : 192 Кбит/сек
Каналы : 2 канала
Расположение каналов : Front: L R
Частота : 48,0 КГц
Частота кадров : 31,250 кадров/сек (1536 SPF)
Битовая глубина : 16 бит
Метод сжатия : С потерями
Размер потока : 125 Мбайт (2%)
Заголовок : Многоголосый закадровый, OPT
Язык : Russian
Default : Нет
Forced : Нет
Аудио #4
Идентификатор : 5
Формат : AC-3
Формат/Информация : Audio Coding 3
Параметр Endianness формата : Big
Идентификатор кодека : A_AC3
Продолжительность : 1 ч. 31 м.
Вид битрейта : Постоянный
Битрейт : 192 Кбит/сек
Каналы : 2 канала
Расположение каналов : Front: L R
Частота : 48,0 КГц
Частота кадров : 31,250 кадров/сек (1536 SPF)
Битовая глубина : 16 бит
Метод сжатия : С потерями
Размер потока : 125 Мбайт (2%)
Заголовок : Многоголосый закадровый, Первый канал
Язык : Russian
Default : Нет
Forced : Нет
Аудио #5
Идентификатор : 6
Формат : AC-3
Формат/Информация : Audio Coding 3
Параметр Endianness формата : Big
Идентификатор кодека : A_AC3
Продолжительность : 1 ч. 31 м.
Вид битрейта : Постоянный
Битрейт : 192 Кбит/сек
Каналы : 2 канала
Расположение каналов : Front: L R
Частота : 48,0 КГц
Частота кадров : 31,250 кадров/сек (1536 SPF)
Битовая глубина : 16 бит
Метод сжатия : С потерями
Размер потока : 125 Мбайт (2%)
Заголовок : Многоголосый закадровый, Россия / РЕН ТВ / ТВ3
Язык : Russian
Default : Нет
Forced : Нет
Аудио #6
Идентификатор : 7
Формат : AC-3
Формат/Информация : Audio Coding 3
Параметр Endianness формата : Big
Идентификатор кодека : A_AC3
Продолжительность : 1 ч. 31 м.
Вид битрейта : Постоянный
Битрейт : 192 Кбит/сек
Каналы : 2 канала
Расположение каналов : Front: L R
Частота : 48,0 КГц
Частота кадров : 31,250 кадров/сек (1536 SPF)
Битовая глубина : 16 бит
Метод сжатия : С потерями
Размер потока : 125 Мбайт (2%)
Заголовок : Двухголосый закадровый, HTB
Язык : Russian
Default : Нет
Forced : Нет
Аудио #7
Идентификатор : 8
Формат : AC-3
Формат/Информация : Audio Coding 3
Параметр Endianness формата : Big
Идентификатор кодека : A_AC3
Продолжительность : 1 ч. 31 м.
Вид битрейта : Постоянный
Битрейт : 384 Кбит/сек
Каналы : 6 каналов
Расположение каналов : Front: L C R, Side: L R, LFE
Частота : 48,0 КГц
Частота кадров : 31,250 кадров/сек (1536 SPF)
Битовая глубина : 16 бит
Метод сжатия : С потерями
Размер потока : 251 Мбайт (3%)
Заголовок : Одноголосый закадровый, Е. Гаевский
Язык : Russian
Default : Нет
Forced : Нет
Аудио #8
Идентификатор : 9
Формат : AC-3
Формат/Информация : Audio Coding 3
Параметр Endianness формата : Big
Идентификатор кодека : A_AC3
Продолжительность : 1 ч. 31 м.
Вид битрейта : Постоянный
Битрейт : 384 Кбит/сек
Каналы : 6 каналов
Расположение каналов : Front: L C R, Side: L R, LFE
Частота : 48,0 КГц
Частота кадров : 31,250 кадров/сек (1536 SPF)
Битовая глубина : 16 бит
Метод сжатия : С потерями
Размер потока : 251 Мбайт (3%)
Заголовок : Одноголосый закадровый, А. Гаврилов
Язык : Russian
Default : Нет
Forced : Нет
Аудио #9
Идентификатор : 10
Формат : AC-3
Формат/Информация : Audio Coding 3
Параметр Endianness формата : Big
Идентификатор кодека : A_AC3
Продолжительность : 1 ч. 31 м.
Вид битрейта : Постоянный
Битрейт : 192 Кбит/сек
Каналы : 2 канала
Расположение каналов : Front: L R
Частота : 48,0 КГц
Частота кадров : 31,250 кадров/сек (1536 SPF)
Битовая глубина : 16 бит
Метод сжатия : С потерями
Размер потока : 125 Мбайт (2%)
Заголовок : Одноголосый закадровый, С. Визгунов
Язык : Russian
Default : Нет
Forced : Нет
Аудио #10
Идентификатор : 11
Формат : AC-3
Формат/Информация : Audio Coding 3
Параметр Endianness формата : Big
Идентификатор кодека : A_AC3
Продолжительность : 1 ч. 31 м.
Вид битрейта : Постоянный
Битрейт : 192 Кбит/сек
Каналы : 2 канала
Расположение каналов : Front: L R
Частота : 48,0 КГц
Частота кадров : 31,250 кадров/сек (1536 SPF)
Битовая глубина : 16 бит
Метод сжатия : С потерями
Размер потока : 125 Мбайт (2%)
Заголовок : Одноголосый закадровый, А. Кашкин
Язык : Russian
Default : Нет
Forced : Нет
Аудио #11
Идентификатор : 12
Формат : AC-3
Формат/Информация : Audio Coding 3
Параметр Endianness формата : Big
Идентификатор кодека : A_AC3
Продолжительность : 1 ч. 31 м.
Вид битрейта : Постоянный
Битрейт : 384 Кбит/сек
Каналы : 6 каналов
Расположение каналов : Front: L C R, Side: L R, LFE
Частота : 48,0 КГц
Частота кадров : 31,250 кадров/сек (1536 SPF)
Битовая глубина : 16 бит
Метод сжатия : С потерями
Размер потока : 251 Мбайт (3%)
Заголовок : AC3, 5.1, 384 kbps
Язык : English
Default : Нет
Forced : Нет
Аудио #12
Идентификатор : 13
Формат : E-AC-3
Формат/Информация : Enhanced Audio Coding 3
Параметр Endianness формата : Big
Идентификатор кодека : A_EAC3
Продолжительность : 1 ч. 31 м.
Вид битрейта : Постоянный
Битрейт : 224 Кбит/сек
Каналы : 2 канала
Расположение каналов : Front: L R
Частота : 48,0 КГц
Частота кадров : 187,500 кадров/сек (256 SPF)
Метод сжатия : С потерями
Размер потока : 146 Мбайт (2%)
Заголовок : E-AC3 (Dolby Digital Plus) 2.0, 224 kbps
Язык : English
Default : Нет
Forced : Нет
Текст #1
Идентификатор : 14
Формат : UTF-8
Идентификатор кодека : S_TEXT/UTF8
Идентификатор кодека/Информация : UTF-8 Plain Text
Заголовок : Forced
Язык : Russian
Default : Да
Forced : Нет
Текст #2
Идентификатор : 15
Формат : UTF-8
Идентификатор кодека : S_TEXT/UTF8
Идентификатор кодека/Информация : UTF-8 Plain Text
Заголовок : Full
Язык : Russian
Default : Нет
Forced : Нет
Текст #3
Идентификатор : 16
Формат : UTF-8
Идентификатор кодека : S_TEXT/UTF8
Идентификатор кодека/Информация : UTF-8 Plain Text
Заголовок : Full
Язык : English
Default : Нет
Forced : Нет
Меню
00:00:00.000 : en:Chapter 1
00:02:07.000 : en:Chapter 2
00:04:32.000 : en:Chapter 3
00:08:31.000 : en:Chapter 4
00:09:39.000 : en:Chapter 5
00:10:58.000 : en:Chapter 6
00:13:20.000 : en:Chapter 7
00:15:28.000 : en:Chapter 8
00:19:43.000 : en:Chapter 9
00:23:14.000 : en:Chapter 10
00:26:04.000 : en:Chapter 11
00:27:23.000 : en:Chapter 12
00:30:19.000 : en:Chapter 13
00:35:36.000 : en:Chapter 14
00:37:09.000 : en:Chapter 15
00:41:29.000 : en:Chapter 16
00:44:31.000 : en:Chapter 17
00:45:40.000 : en:Chapter 18
00:46:48.000 : en:Chapter 19
00:49:56.000 : en:Chapter 20
00:52:45.000 : en:Chapter 21
00:55:08.000 : en:Chapter 22
00:57:52.000 : en:Chapter 23
01:01:05.000 : en:Chapter 24
01:06:37.000 : en:Chapter 25
01:10:25.000 : en:Chapter 26
01:12:35.000 : en:Chapter 27
01:15:05.000 : en:Chapter 28
01:16:19.000 : en:Chapter 29
01:17:32.000 : en:Chapter 30
01:19:31.000 : en:Chapter 31
01:22:54.000 : en:Chapter 32
01:24:17.000 : en:Chapter 33
Автор Bot
Категория Зарубежные фильмы
InfoHash DA47AC25577BEEF0E4C4415A702E5EB8316FFD40
Файлы (1)
Показать файлы
Трекера
Показать трекера

    Нет комментариев

Войти на сайт

Статистика

  • Всего торрентов: 74836
  • Объёмом: 431.7 Тб
  • Сидов: 2001182
  • Личеров: 174240