Подождите, загружаю...

Все раздачи Раздачи по тегам Правила Информация Контакты

Русское Завтра [01-57] (2015-2016) WEBRip 720p

Русское Завтра [01-57] (2015-2016) WEBRip 720p

Информация о фильме
Название: Русское Завтра
Год выхода: 2015-2016
Жанр: Документальный, информационная передача
В ролях: Мария Гришина, Дмитрий Захаров, Мария Катасонова, Наталья Макеева, Мария Максимова, Екатерина Нагибина, Евгения Пасечник, Александр Прошин, Максим Славин, Алексей Сысоев, Андрей Сысоев, Иван Федюнин, Вячеслав Хвастушин, Екатерина Шинкарева, Павел Яворский, Ольга Яшина
О фильме:
«Русское Завтра» - патриотическое молодежное объединение. Сборник содержит 57 выпусков: видеообращения, опросы на улицах, ответы на вопросы, информационные видеоролики. Участники проекта задают вопросы людям на улицах Москвы на самые замалчиваемые и скрываемые телевидением и другими СМИ темы во внутренней и внешней политике, в экономике, в новой и новейшей истории России. Их не пускают на телеэкраны, а видеоканал был заблокирован.
Из выпуска «Клип Русского Завтра»: «Видео с животным, чужими падениями, нелепыми приколами, пошлыми шутками, рассказов о том, как прокачать старый мопед, дедушкин велосипед, превратить старый сарай в рай, правильно вырастить огурец и накрасить глаз, на нашем канале нет. Нет, мы не будем тебя развлекать и веселить, но мы готовы поработать над твоим мозгом. Мы можем поместить в твою черепную коробку знания, необходимые тебе для выживания. Нет, это не знания о том, как выжить на необитаемом острове. Что за чушь! Как тебе такое могло придти в голову! Ты ведь об этом подумал. Скажи - а что ты знаешь о политике, об экономике, и, вообще, о том, как устроено наше государство? Ты, наверное, считаешь, что это неважно - пусть большие дяди, сидящие в органах власти, занимаются политикой, - а я личность другого масштаба. Я вне политики! Да как ты можешь так рассуждать! Ты, вообще, в курсе, что мы находимся в состоянии войны?! Выползай из системы созданных для тебя клише. Открой черепную коробку - сейчас туда упадут знания. Но не вздумай верить нам на слово! Ты можешь проверить всё сам. Смотри, анализируй. Думай. И помни, что «Русское Завтра» наступает сегодня...»
Страна: Россия
Студия: Интернет-канал «Русское Завтра»
Продолжительность: 05:05:00
Перевод: Не требуется
Файл
Кодек: h.264
Качество: WEBRip 720p
Видео: AVC/H.264, 1280x720 (16:9), ~1354 Kbps, 25 fps
Звук: AAC, 2 ch, 126 Kbps
MediaInfo

General
Unique ID : 203051313029742608490906232061055837191 (0x98C242A9A5B70F84B025A6CE62B5A407)
Complete name : D:FilmРусское Завтраrusskoezavtra01_Инфо_Сканируется Конституция России.mkv
Format : Matroska
Format version : Version 4 / Version 2
File size : 70.3 MiB
Duration : 6 min 34 s
Overall bit rate : 1 493 kb/s
Encoded date : UTC 2017-11-13 16:44:14
Writing application : mkvmerge v17.0.0 ('Be Ur Friend') 64-bit
Writing library : libebml v1.3.5 + libmatroska v1.4.8
Cover : Yes
Attachments : cover.png
Video
ID : 1
Format : AVC
Format/Info : Advanced Video Codec
Format profile : Main@L3.1
Format settings : CABAC / 3 Ref Frames
Format settings, CABAC : Yes
Format settings, RefFrames : 3 frames
Codec ID : V_MPEG4/ISO/AVC
Duration : 6 min 34 s
Bit rate : 1 354 kb/s
Width : 1 280 pixels
Height : 720 pixels
Display aspect ratio : 16:9
Frame rate mode : Constant
Frame rate : 25.000 FPS
Color space : YUV
Chroma subsampling : 4:2:0
Bit depth : 8 bits
Scan type : Progressive
Bits/(Pixel*Frame) : 0.059
Stream size : 63.7 MiB (91%)
Language : Russian
Default : Yes
Forced : No
Audio
ID : 2
Format : AAC
Format/Info : Advanced Audio Codec
Format profile : LC
Codec ID : A_AAC-2
Duration : 6 min 34 s
Bit rate : 126 kb/s
Channel(s) : 2 channels
Channel positions : Front: L R
Sampling rate : 44.1 kHz
Frame rate : 43.066 FPS (1024 SPF)
Compression mode : Lossy
Stream size : 5.91 MiB (8%)
Language : Russian
Default : Yes
Forced : No
Скриншоты
Автор Bot
Категория Телевизор
InfoHash E0FC572591F0D429E3C488F652F9A37B7FD2E096
Файлы (1)
Показать файлы
Трекера
Показать трекера

    Нет комментариев

Войти на сайт

Статистика

  • Всего торрентов: 73670
  • Объёмом: 422.9 Тб
  • Сидов: 2092979
  • Личеров: 167047