Все раздачи Раздачи по тегам Правила Информация Контакты

Стрэттон: Первое задание / Stratton (2017) HDRip-AVC | L

Стрэттон: Первое задание / Stratton (2017) HDRip-AVC | L

Информация о фильме
Название: Голос монстра
Название: Стрэттон: Первое задание
Оригинальное название: Stratton
Год выпуска: 2017
Жанр: Боевик, триллер
Режиссер: Саймон Уэст
В ролях: Джемма Чан, Тайлер Хэклин, Том Фелтон, Конни Нильсен, Доминик Купер, Остин Стоуэлл, Томас Кречман, Дерек Джекоби, Игал Наор, Ли Николас Харрис
О фильме: Коммандос спецподразделения вооруженных сил Великобритании, Джон Стрэттон, вступает в схватку с группой международных террористов. Их цель — осуществить теракт в Лондоне при помощи современного биологического оружия. Стрэттону придется действовать крайне решительно, иначе можно просто не успеть предотвратить трагедию.


Страна: Великобритания
Студия: Atomic Arts, GFM films, SquareOne Entertainment, Stratton Film Productions, Twickenham Film Studios
Продолжительность: 01:34:28
Перевод: Любительский многоголосый (Синема УС)
Файл
Формат: MKV
Качество: HDRip (AVC)
Видео: MPEG-4 AVC, 1024x428 (2.40:1), 23.976 fps, ~2188 kbps avg, 0.163 bit/pixel
Аудио1: 48 kHz, AC3 Dolby Digital, 3/2 (L,C,R,l,r) + LFE ch, ~448 kbps - Rus
Аудио2: 48 kHz, AC3 Dolby Digital, 3/2 (L,C,R,l,r) + LFE ch, ~448 kbps - Английский
Субтитры: Русские (Forced), английские
Без рекламы.
MI
General
Unique ID : 190585621897949860835872282827229833400 (0x8F6174A36681E409BE5FE494F66128B8)
Complete name : D:Stratton.2017.HDRip.AVC.ExKinoRay.mkv
Format : Matroska
Format version : Version 2
File size : 2.03 GiB
Duration : 1 h 34 min
Overall bit rate : 3 082 kb/s
Movie name : Stratton (2017)
Encoded date : UTC 2017-11-15 05:14:21
Writing application : mkvmerge v5.6.0 ('Kenya Kane') built on May 27 2012 16:44:04
Writing library : libebml v1.2.3 + libmatroska v1.3.0
Video
ID : 1
Format : AVC
Format/Info : Advanced Video Codec
Format profile : High@L4.1
Format settings, CABAC : Yes
Format settings, ReFrames : 12 frames
Codec ID : V_MPEG4/ISO/AVC
Duration : 1 h 34 min
Bit rate : 2 188 kb/s
Width : 1 024 pixels
Height : 428 pixels
Display aspect ratio : 2.40:1
Frame rate mode : Constant
Frame rate : 23.976 (23976/1000) FPS
Color space : YUV
Chroma subsampling : 4:2:0
Bit depth : 8 bits
Scan type : Progressive
Bits/(Pixel*Frame) : 0.208
Stream size : 1.40 GiB (69%)
Title : Enigma
Writing library : x264 core 152 r2851 ba24899
Encoding settings : cabac=1 / ref=12 / deblock=1:-2:-2 / analyse=0x3:0x113 / me=umh / subme=10 / psy=1 / psy_rd=1.00:0.03 / mixed_ref=1 / me_range=32 / chroma_me=1 / trellis=2 / 8x8dct=1 / cqm=0 / deadzone=21,11 / fast_pskip=1 / chroma_qp_offset=-3 / threads=12 / lookahead_threads=2 / sliced_threads=0 / nr=0 / decimate=0 / interlaced=0 / bluray_compat=0 / constrained_intra=0 / bframes=9 / b_pyramid=2 / b_adapt=2 / b_bias=0 / direct=3 / weightb=1 / open_gop=0 / weightp=2 / keyint=240 / keyint_min=23 / scenecut=40 / intra_refresh=0 / rc_lookahead=40 / rc=2pass / mbtree=0 / bitrate=2188 / ratetol=1.0 / qcomp=0.60 / qpmin=0 / qpmax=51 / qpstep=4 / cplxblur=20.0 / qblur=0.5 / vbv_maxrate=50000 / vbv_bufsize=62500 / nal_hrd=none / filler=0 / ip_ratio=1.40 / pb_ratio=1.30 / aq=3:0.80
Language : English
Default : Yes
Forced : No
Color range : Limited
Color primaries : BT.709
Transfer characteristics : BT.709
Matrix coefficients : BT.709
Audio #1
ID : 2
Format : AC-3
Format/Info : Audio Coding 3
Mode extension : CM (complete main)
Format settings, Endianness : Big
Codec ID : A_AC3
Duration : 1 h 34 min
Bit rate mode : Constant
Bit rate : 448 kb/s
Channel(s) : 6 channels
Channel positions : Front: L C R, Side: L R, LFE
Sampling rate : 48.0 kHz
Frame rate : 31.250 FPS (1536 spf)
Compression mode : Lossy
Stream size : 303 MiB (15%)
Title : MVO
Language : Russian
Default : Yes
Forced : No
Audio #2
ID : 3
Format : AC-3
Format/Info : Audio Coding 3
Mode extension : CM (complete main)
Format settings, Endianness : Big
Codec ID : A_AC3
Duration : 1 h 34 min
Bit rate mode : Constant
Bit rate : 448 kb/s
Channel(s) : 6 channels
Channel positions : Front: L C R, Side: L R, LFE
Sampling rate : 48.0 kHz
Frame rate : 31.250 FPS (1536 spf)
Compression mode : Lossy
Stream size : 303 MiB (15%)
Language : English
Default : No
Forced : No
Text #1
ID : 4
Format : UTF-8
Codec ID : S_TEXT/UTF8
Codec ID/Info : UTF-8 Plain Text
Title : Forced
Language : Russian
Default : Yes
Forced : No
Text #2
ID : 5
Format : UTF-8
Codec ID : S_TEXT/UTF8
Codec ID/Info : UTF-8 Plain Text
Language : English
Default : No
Forced : No
Menu
00:00:00.000 : en:00:00:00.000
00:10:59.659 : en:00:10:59.659
00:17:43.062 : en:00:17:43.062
00:26:32.800 : en:00:26:32.800
00:37:46.264 : en:00:37:46.264
00:49:40.978 : en:00:49:40.978
00:59:01.037 : en:00:59:01.037
01:11:31.287 : en:01:11:31.287
01:18:52.353 : en:01:18:52.353
01:27:23.238 : en:01:27:23.238


Релиз от:
Автор релиза:
Автор Bot
Категория Зарубежные фильмы
InfoHash 048DA15FF7E25AFD13C1E519ABEAFC56F9EF40C6
Файлы (1)
Показать файлы
Трекера
Показать трекера
Похожие раздачи

    Нет комментариев

Войти на сайт

Статистика

  • Всего торрентов: 86487
  • Объёмом: 512.4 Тб
  • Сидов: 2676030
  • Личеров: 177012