Все раздачи Раздачи по тегам Правила Информация Контакты

Пресс-конференция Владимира Путина на саммите АТЭС [11.11] (2017) WEBRip 720p

Пресс-конференция Владимира Путина на саммите АТЭС [11.11] (2017) WEBRip 720p

Информация о фильме
Название: Пресс-конференция Владимира Путина на саммите АТЭС (Эфир от 11.11.17)
Год выхода: 2017
Жанр: Телепередача
О фильме:
Во Вьетнаме завершил работу 25‑й саммит форума «Азиатско-тихоокеанское экономическое сотрудничество».
В кулуарах саммита глава Российского государства общался с Президентом США Дональдом Трампом. Лидеры двух стран одобрили совместное заявление по Сирии.
По окончании работы форума Владимир Путин ответил на вопросы российских и иностранных журналистов.
Официальный сайт
Страна: Россия
Студия: Президент.РФ
Продолжительность: 00:28:51
Перевод: Не требуется, субтитры: отсутствуют
Файл
Кодек: h.264
Качество: WEBRip 720p
Видео: AVC MPEG-4, 1280x720 (16:9), ~3016 Kbps, 25 fps
Звук: AAC, 2 ch, 128 Kbps, 48 kHz
MediaInfo

General
Unique ID : 252126968327272936929404559516469996999 (0xBDADE34771CB6F71924430DA7096ADC7)
Complete name : D:FilmПресс-конференция Владимира Путина на саммите АТЭС.mkv
Format : Matroska
Format version : Version 4 / Version 2
File size : 650 MiB
Duration : 28 min 51 s
Overall bit rate : 3 148 kb/s
Encoded date : UTC 2017-11-11 18:11:51
Writing application : mkvmerge v17.0.0 ('Be Ur Friend') 64-bit
Writing library : libebml v1.3.5 + libmatroska v1.4.8
Cover : Yes
Attachments : cover.png
Video
ID : 1
Format : AVC
Format/Info : Advanced Video Codec
Format profile : Main@L3.1
Format settings : 2 Ref Frames
Format settings, CABAC : No
Format settings, RefFrames : 2 frames
Codec ID : V_MPEG4/ISO/AVC
Duration : 28 min 51 s
Bit rate : 3 016 kb/s
Width : 1 280 pixels
Height : 720 pixels
Display aspect ratio : 16:9
Frame rate mode : Constant
Frame rate : 25.000 FPS
Color space : YUV
Chroma subsampling : 4:2:0
Bit depth : 8 bits
Scan type : Progressive
Bits/(Pixel*Frame) : 0.131
Stream size : 622 MiB (96%)
Language : Russian
Default : Yes
Forced : No
Color range : Limited
Audio
ID : 2
Format : AAC
Format/Info : Advanced Audio Codec
Format profile : LC
Codec ID : A_AAC-2
Duration : 28 min 51 s
Bit rate : 128 kb/s
Channel(s) : 2 channels
Channel positions : Front: L R
Sampling rate : 48.0 kHz
Frame rate : 46.875 FPS (1024 SPF)
Compression mode : Lossy
Delay relative to video : -40 ms
Stream size : 26.4 MiB (4%)
Language : Russian
Default : Yes
Forced : No
Скриншоты
Автор Bot
Категория Телевизор
InfoHash E6A3EC7AB896CF4D6E27BE12FAF1065F9959C377
Файлы (1)
Показать файлы
Трекера
Показать трекера

    Нет комментариев

Войти на сайт

Статистика

  • Всего торрентов: 86487
  • Объёмом: 512.4 Тб
  • Сидов: 2676078
  • Личеров: 177015