Все раздачи Раздачи по тегам Правила Информация Контакты

Оратор / Voiz / The Speaker (1999) DVDRip-AVC | L1

Оратор / Voiz / The Speaker (1999) DVDRip-AVC | L1

Информация о фильме
Название: Оратор
Оригинальное название: Voiz / The Speaker
Год выхода: 1999
Жанр: Драма
Режиссер: Юсуп Разыков
В ролях: Тути Юсупова, Джавахир Закиров, Бахадыр Адылов
О фильме:
Было у доброго и простодушного Искандера три жены, повозка с лошадью и счастье в доме. А потом пришла революция и вместе с ней — гражданская война и новые обязанности. Любовница-комиссар стала четвертой (тайной) женой Искандера. Революции понадобилось его умение разговаривать с массами. Однако, доброты и ораторского таланта оказалось недостаточно для того, чтобы сохранить семью, любовь и чистую совесть. История об установлении советской власти в Узбекистане рассказана через взаимоотношения четырех жен патриархальной мусульманской семьи. Рассказ ведется от лица сына Искандера.

Страна: Узбекистан
Продолжительность: 1:23:53
Перевод: Любительский (одноголосый закадровый), Субтитры (Английские, неотключаемые)
Файл
Кодек: QuickTime
Качество: DVD
Видео: AVC, QuickTime (mov), 720x576@768x576, 25 fps, 5 997 kb/s
Звук:
Узбекский, AAC, 256 kb/s, 48.0 kHz, 2 channels
Русский закадровый, AAC, 256 kb/s, 48.0 kHz, 2 channels
Субтитры: Английские (неотключаемые)
Семпл
MI
General
Format : MPEG-4
Format profile : QuickTime
Codec ID : qt 0000.02 (qt )
File size : 3.82 GiB
Duration : 1 h 23 min
Overall bit rate mode : Variable
Overall bit rate : 6 517 kb/s
Encoded date : UTC 2005-12-07 14:47:33
Tagged date : UTC 2005-12-07 14:47:33
Writing application : Lavf57.40.101
Video
ID : 1
Format : AVC
Format/Info : Advanced Video Codec
Format profile : Main@L3.1
Format settings, CABAC : Yes
Format settings, RefFrames : 2 frames
Codec ID : avc1
Codec ID/Info : Advanced Video Coding
Duration : 1 h 23 min
Bit rate mode : Variable
Bit rate : 5 997 kb/s
Maximum bit rate : 768 kb/s
Width : 720 pixels
Height : 576 pixels
Display aspect ratio : 4:3
Frame rate mode : Constant
Frame rate : 25.000 FPS
Standard : PAL
Color space : YUV
Chroma subsampling : 4:2:0
Bit depth : 8 bits
Scan type : Progressive
Bits/(Pixel*Frame) : 0.578
Stream size : 3.51 GiB (92%)
Language : English
Encoded date : UTC 2005-12-07 14:47:33
Tagged date : UTC 2005-12-07 14:47:33
Audio #1
ID : 2
Format : AAC
Format/Info : Advanced Audio Codec
Format profile : LC
Codec ID : 40
Duration : 1 h 23 min
Bit rate mode : Constant
Bit rate : 256 kb/s
Channel(s) : 2 channels
Channel positions : Front: L R
Sampling rate : 48.0 kHz
Frame rate : 46.875 FPS (1024 SPF)
Compression mode : Lossy
Stream size : 154 MiB (4%)
Language : English
Default : Yes
Alternate group : 1
Encoded date : UTC 2005-12-07 14:47:33
Tagged date : UTC 2005-12-07 14:47:33
Audio #2
ID : 3
Format : AAC
Format/Info : Advanced Audio Codec
Format profile : LC
Codec ID : 40
Duration : 1 h 23 min
Bit rate mode : Constant
Bit rate : 256 kb/s
Channel(s) : 2 channels
Channel positions : Front: L R
Sampling rate : 48.0 kHz
Frame rate : 46.875 FPS (1024 SPF)
Compression mode : Lossy
Stream size : 154 MiB (4%)
Language : English
Default : No
Alternate group : 1
Encoded date : UTC 2005-12-07 14:47:33
Tagged date : UTC 2005-12-07 14:47:33
Скриншоты
Автор Bot
Категория Зарубежные фильмы
InfoHash D406C123794861A7E5627EBB4460BDD9142E4FB9
Файлы (1)
Показать файлы
Трекера
Показать трекера

    Нет комментариев

Войти на сайт

Статистика

  • Всего торрентов: 86487
  • Объёмом: 512.4 Тб
  • Сидов: 2679098
  • Личеров: 177032