Все раздачи Раздачи по тегам Правила Информация Контакты

Хакер / Hacker (2016) HDRip-AVC | L

Хакер / Hacker (2016) HDRip-AVC | L

Информация о фильме
Название: Хакер
Оригинальное название: Hacker
Год выхода: 2016
Жанр: Триллер, драма, криминал
Режиссер: Акан Сатаев
В ролях: Каллэн МакОлифф, Лоррэйн Николсон, Дэниэл Эрик Голд, Клифтон Коллинз мл., Захари Беннетт, Влада Веревко, Геннадий Долганов
О фильме :
Реальная история, которая произошли с кибер-злодеем Алексом Данилюком, стала основой для сюжета этого фильма. Парень эмигрировал в Канаду вместе со своей матерью. Сначала все было хорошо. Женщина устроилась на хорошую работу. Они ни в чем не нуждались. Но однажды счастью пришел конец: мать Алекса уволили. Лишившись доходов, банк грозит отобрать у них жилье. Но будучи талантливым хакером, Алекс нашел способ решить эту проблему. Вместе с членами подпольной организации кибер-преступников он начинает проворачивать финансовые махинации, приносящие хороший доход. Вскоре парень уже забыл для чего он вступил на эту опасную дорожку. Чувство справедливости и мести давно сменились банальной жадностью к деньгам...

Выпущено: США, Таиланд, Казахстан, Гонконг, Канада
Производство: Sataifilm, Know Rules Media, Brillstein Entertainment Partners
Продолжительность: 01:47:36
Перевод: Любительский (многоголосый, закадровый) | Синема УС (Без рекламы)
Файл
Формат: MKV
Качество: HDRip-AVC
Видео: MPEG-4 AVC, 768x320, ~ 891 Кбит/с
Аудио: AAC-LC, 2 ch, ~ 76 Кбит/с
MI
Общее
Уникальный идентификатор : 173646875939657623238353148862890020327 (0x82A32BFBE185988D94D018895CBC8DE7)
Полное имя : D:MOVIESHacker.2016.ExKinoRay.mkv
Формат : Matroska
Версия формата : Version 4 / Version 2
Размер файла : 746 Мбайт
Продолжительность : 1 ч. 47 м.
Общий поток : 969 Кбит/сек
Дата кодирования : UTC 2017-11-15 05:47:11
Программа кодирования : mkvmerge v15.0.0 ('Duel with the Devil') 64-bit
Библиотека кодирования : libebml v1.3.5 + libmatroska v1.4.5
Видео
Идентификатор : 1
Формат : AVC
Формат/Информация : Advanced Video Codec
Профиль формата : High@L4.1
Параметр CABAC формата : Да
Параметр RefFrames формата : 10 кадров
Идентификатор кодека : V_MPEG4/ISO/AVC
Продолжительность : 1 ч. 47 м.
Битрейт : 891 Кбит/сек
Ширина : 768 пикселей
Высота : 320 пикселей
Соотношение сторон : 2,40:1
Режим частоты кадров : Постоянный
Частота кадров : 24,000 кадра/сек
Цветовое пространство : YUV
Субдискретизация насыщенности : 4:2:0
Битовая глубина : 8 бит
Тип развёртки : Прогрессивная
Бит/(Пиксели*Кадры) : 0.151
Размер потока : 686 Мбайт (92%)
Библиотека кодирования : x264 core 152 r2851kMod ba24899
Настройки программы : cabac=1 / ref=10 / deblock=1:-2:-2 / analyse=0x3:0x133 / me=umh / subme=11 / psy=1 / fade_compensate=0.00 / psy_rd=1.00:0.10 / mixed_ref=1 / me_range=32 / chroma_me=1 / trellis=2 / 8x8dct=1 / cqm=0 / deadzone=21,11 / fast_pskip=0 / chroma_qp_offset=-3 / threads=6 / lookahead_threads=1 / sliced_threads=0 / nr=0 / decimate=0 / interlaced=0 / bluray_compat=0 / constrained_intra=0 / bframes=10 / b_pyramid=2 / b_adapt=2 / b_bias=0 / direct=3 / weightb=1 / open_gop=0 / weightp=2 / keyint=240 / keyint_min=23 / scenecut=40 / intra_refresh=0 / rc_lookahead=40 / rc=2pass / mbtree=1 / bitrate=891 / ratetol=1.0 / qcomp=0.60 / qpmin=0 / qpmax=69 / qpstep=4 / cplxblur=20.0 / qblur=0.5 / vbv_maxrate=50000 / vbv_bufsize=62500 / nal_hrd=none / filler=0 / ip_ratio=1.40 / aq=3:1.00
Default : Да
Forced : Нет
Аудио
Идентификатор : 2
Формат : AAC
Формат/Информация : Advanced Audio Codec
Профиль формата : LC
Идентификатор кодека : A_AAC
Продолжительность : 1 ч. 47 м.
Битрейт : 76,0 Кбит/сек
Каналы : 2 канала
Расположение каналов : Front: L R
Частота : 48,0 КГц
Частота кадров : 46,875 кадров/сек (1024 SPF)
Метод сжатия : С потерями
Задержка видео : 9 мс.
Размер потока : 58,5 Мбайт (8%)
Default : Да
Forced : Нет
Скриншоты


Релиз от:
Автор Bot
Категория Зарубежные фильмы
InfoHash 2FDC558E205C82C24FCD81AAD373D5E9B35892DB
Файлы (1)
Показать файлы
Трекера
Показать трекера
Похожие раздачи
Название Добавлен Размер Сид Лич
Хакер / Hacker (2016) BDRip 720p | L 22/12/2017 4.7 Гб 11 2
Хакер / Hacker (2016) BDRip 1080p | L 22/12/2017 8.8 Гб 6 2

    Нет комментариев

Войти на сайт

Статистика

  • Всего торрентов: 86487
  • Объёмом: 512.4 Тб
  • Сидов: 2677381
  • Личеров: 177024