Все раздачи Раздачи по тегам Правила Информация Контакты

Заложники (2017) BDRip 720p | Лицензия

Заложники (2017) BDRip 720p | Лицензия

Информация о фильме
Название: Заложники
Год выхода: 2017
Жанр: драма, триллер, биография, история
Режиссер: Резо Гигинеишвили
В ролях: Иракли Квирикадзе, Тинатин Далакишвили, Гига Датиашвили, Гиорги Грдзелидзе, Георгий Табидзе, Гиорги Хурцилава, Вахтанг Чачанидзе, Екатерина Калатозишвили, Бека Лемонджава, Мераб Нинидзе
О фильме:
Начало 80-х. Советская Грузия. Всего несколько лет до распада Советского Союза. Молодые люди из уважаемых грузинских семей ищут себя в условиях закрытой системы. Музыка Beatles, джинсы, американские сигареты, положение в обществе, гарантированное будущее… У них, казалось, было все, кроме одного — свободы. Цена этой свободы окажется слишком высока… Подлинная история о событиях 1983 года, когда шесть парней и одна девушка пытались угнать самолет с целью побега из СССР.

Страна: Россия, Грузия
Студия: 20 Steps Productions, Extreme Emotions, «Кинокомпания «Небо»
Продолжительность: 01:43:49
Перевод: Дублированный
Субтитры: Русские
Файл
Формат: MKV
Качество: BDRip 720p
Видео: AVC, 1280x480 (2.667:1), 3602 kbps, 24,000 fps, 0,244 bpp
Аудио 1: 48 kHz, AC3, 5.1, 640 Kbps | RUS |
Аудио 2: DTS, 48 kHz, 6 ch, ~1510.00 kbps avg
МИ
General
Unique ID : 247099923790671019860871443377592301033 (0xB9E5B6D8FC1DB5DDB1BEFE080C1175E9)
Complete name : D:Hostages.2017.BDRip.720p.ExKinoRay.mkv
Format : Matroska
Format version : Version 2
File size : 4.17 GiB
Duration : 1 h 43 min
Overall bit rate : 5 752 kb/s
Movie name : Заложники 2017 from ExKinoRay
Encoded date : UTC 2017-11-14 05:02:33
Writing application : mkvmerge v5.6.0 ('Kenya Kane') built on May 27 2012 16:44:04
Writing library : libebml v1.2.3 + libmatroska v1.3.0
Video
ID : 1
Format : AVC
Format/Info : Advanced Video Codec
Format profile : High@L4.1
Format settings, CABAC : Yes
Format settings, ReFrames : 12 frames
Codec ID : V_MPEG4/ISO/AVC
Duration : 1 h 43 min
Bit rate : 3 602 kb/s
Width : 1 280 pixels
Height : 480 pixels
Display aspect ratio : 2.667
Frame rate mode : Constant
Frame rate : 24.000 FPS
Color space : YUV
Chroma subsampling : 4:2:0
Bit depth : 8 bits
Scan type : Progressive
Bits/(Pixel*Frame) : 0.244
Stream size : 2.53 GiB (61%)
Title : Enigma
Writing library : x264 core 152 r2851 ba24899
Encoding settings : cabac=1 / ref=12 / deblock=1:-2:-2 / analyse=0x3:0x113 / me=umh / subme=10 / psy=1 / psy_rd=1.00:0.05 / mixed_ref=1 / me_range=32 / chroma_me=1 / trellis=2 / 8x8dct=1 / cqm=0 / deadzone=21,11 / fast_pskip=1 / chroma_qp_offset=-3 / threads=12 / lookahead_threads=3 / sliced_threads=0 / nr=0 / decimate=0 / interlaced=0 / bluray_compat=0 / constrained_intra=0 / bframes=12 / b_pyramid=2 / b_adapt=2 / b_bias=0 / direct=3 / weightb=1 / open_gop=0 / weightp=2 / keyint=240 / keyint_min=24 / scenecut=40 / intra_refresh=0 / rc_lookahead=40 / rc=2pass / mbtree=0 / bitrate=3602 / ratetol=1.0 / qcomp=0.65 / qpmin=0 / qpmax=51 / qpstep=4 / cplxblur=20.0 / qblur=0.5 / vbv_maxrate=50000 / vbv_bufsize=62500 / nal_hrd=none / filler=0 / ip_ratio=1.40 / pb_ratio=1.30 / aq=3:0.90
Language : English
Default : Yes
Forced : No
Color range : Limited
Color primaries : BT.709
Transfer characteristics : BT.709
Matrix coefficients : BT.709
Audio #1
ID : 2
Format : AC-3
Format/Info : Audio Coding 3
Mode extension : CM (complete main)
Format settings, Endianness : Big
Codec ID : A_AC3
Duration : 1 h 43 min
Bit rate mode : Constant
Bit rate : 640 kb/s
Channel(s) : 6 channels
Channel positions : Front: L C R, Side: L R, LFE
Sampling rate : 48.0 kHz
Frame rate : 31.250 FPS (1536 spf)
Compression mode : Lossy
Stream size : 475 MiB (11%)
Title : Dub
Language : Russian
Default : Yes
Forced : No
Audio #2
ID : 3
Format : DTS
Format/Info : Digital Theater Systems
Mode : 16
Format settings, Endianness : Big
Codec ID : A_DTS
Duration : 1 h 43 min
Bit rate mode : Constant
Bit rate : 1 509 kb/s
Channel(s) : 6 channels
Channel positions : Front: L C R, Side: L R, LFE
Sampling rate : 48.0 kHz
Frame rate : 93.750 FPS (512 spf)
Bit depth : 24 bits
Compression mode : Lossy
Stream size : 1.09 GiB (26%)
Title : Dub
Language : Russian
Default : No
Forced : No
Text
ID : 4
Format : UTF-8
Codec ID : S_TEXT/UTF8
Codec ID/Info : UTF-8 Plain Text
Language : Russian
Default : No
Forced : No
Menu
00:00:00.000 : :Chapter 01
00:02:01.250 : :Chapter 02
00:15:40.250 : :Chapter 03
00:28:47.291 : :Chapter 04
00:44:00.125 : :Chapter 05
00:55:02.791 : :Chapter 06
01:07:50.083 : :Chapter 07
01:18:44.375 : :Chapter 08
01:31:25.000 : :Chapter 09

Релиз от:
Автор релиза:
Автор Bot
Категория Зарубежные фильмы
InfoHash 454AD6C5C53062F690F154E1B512E78E4F4415EA
Файлы (1)
Показать файлы
Трекера
Показать трекера
Похожие раздачи
Название Добавлен Размер Сид Лич
Заложники (2017) WEB-DLRip | iTunes 23/12/2017 1.4 Гб 0 0
Заложники (2017) BDRip-AVC | Лицензия 23/12/2017 1.5 Гб 36 0
Заложники (2017) BDRemux 1080p | Лицензия 23/12/2017 17.8 Гб 1 0
Заложники (2017) BDRip | Лицензия 23/12/2017 746.3 Мб 4 1
Заложники (2017) BDRip 1080p | Лицензия 15/11/2017 9.1 Гб 4 0

    Нет комментариев

Войти на сайт

Статистика

  • Всего торрентов: 86190
  • Объёмом: 510.9 Тб
  • Сидов: 2599508
  • Личеров: 164263