Все раздачи Раздачи по тегам Правила Информация Контакты

Гангстердам / Gangsterdam (2017) HDRip-AVC | iTunes

Гангстердам / Gangsterdam (2017) HDRip-AVC | iTunes

Информация о фильме
Название: Гангстердам
Оригинальное название: Gangsterdam
Год выпуска: 2017
Жанр: Комедия
Режиссер: Ромейн Леви
В ролях: Кев Адамс, Мэнон Азем, Коме Левин, Юбер Кунде, Мона Валравенс, Рутгер Хауэр, Алекс Хендрикс, Идо Моссери, Патрик Тимси, Маню Пайе
О фильме :
После серии нелепых попыток приударить за Норой, судьба наконец подкидывает Рубену реальный шанс доказать, что он настоящий мачо. Всё, что для этого нужно — отправиться с девушкой своей мечты в Амстердам, забрать товар и по дороге назад не напортачить. Всё шло гладко, пока на их пути не встала местная мафия.

Страна: Франция, Нидерланды
Студия: Les Productions du Trésor, StudioCanal, France 2 Cinéma, Lunanime B.V., Canal+, Ciné+, France Télévisions, M6, Netherlands Film Production Incentive
Продолжительность: 1:38:01
Перевод: Дублированный | iTunes
Файл
Формат: MKV
Качество: HDRip-AVC
Видео: MPEG-4 AVC, 768x320, ~ 986 Кбит/с
Аудио: AAC-LC, 2 ch, ~ 76 Кбит/с
MI
Общее
Уникальный идентификатор : 179086133251954806886052284670335466769 (0x86BABC1308E11D7FBD1500E264633D11)
Полное имя : D:MOVIESgangsterdam.2017.ExKinoRay.mkv
Формат : Matroska
Версия формата : Version 4 / Version 2
Размер файла : 746 Мбайт
Продолжительность : 1 ч. 38 м.
Общий поток : 1064 Кбит/сек
Дата кодирования : UTC 2017-11-13 21:35:34
Программа кодирования : mkvmerge v15.0.0 ('Duel with the Devil') 64-bit
Библиотека кодирования : libebml v1.3.5 + libmatroska v1.4.5
Видео
Идентификатор : 1
Формат : AVC
Формат/Информация : Advanced Video Codec
Профиль формата : High@L4.1
Параметр CABAC формата : Да
Параметр RefFrames формата : 10 кадров
Идентификатор кодека : V_MPEG4/ISO/AVC
Продолжительность : 1 ч. 38 м.
Битрейт : 986 Кбит/сек
Ширина : 768 пикселей
Высота : 320 пикселей
Соотношение сторон : 2,40:1
Режим частоты кадров : Постоянный
Частота кадров : 23,976 (24000/1001) кадра/сек
Цветовое пространство : YUV
Субдискретизация насыщенности : 4:2:0
Битовая глубина : 8 бит
Тип развёртки : Прогрессивная
Бит/(Пиксели*Кадры) : 0.167
Размер потока : 691 Мбайт (93%)
Библиотека кодирования : x264 core 152 r2851kMod ba24899
Настройки программы : cabac=1 / ref=10 / deblock=1:-2:-2 / analyse=0x3:0x133 / me=umh / subme=11 / psy=1 / fade_compensate=0.00 / psy_rd=1.00:0.15 / mixed_ref=1 / me_range=32 / chroma_me=1 / trellis=2 / 8x8dct=1 / cqm=0 / deadzone=21,11 / fast_pskip=0 / chroma_qp_offset=-3 / threads=6 / lookahead_threads=1 / sliced_threads=0 / nr=0 / decimate=0 / interlaced=0 / bluray_compat=0 / constrained_intra=0 / bframes=10 / b_pyramid=2 / b_adapt=2 / b_bias=0 / direct=3 / weightb=1 / open_gop=0 / weightp=2 / keyint=240 / keyint_min=23 / scenecut=40 / intra_refresh=0 / rc_lookahead=40 / rc=2pass / mbtree=1 / bitrate=986 / ratetol=1.0 / qcomp=0.60 / qpmin=0 / qpmax=69 / qpstep=4 / cplxblur=20.0 / qblur=0.5 / vbv_maxrate=50000 / vbv_bufsize=62500 / nal_hrd=none / filler=0 / ip_ratio=1.40 / aq=3:1.00
Default : Да
Forced : Нет
Аудио
Идентификатор : 2
Формат : AAC
Формат/Информация : Advanced Audio Codec
Профиль формата : LC
Идентификатор кодека : A_AAC
Продолжительность : 1 ч. 38 м.
Битрейт : 76,0 Кбит/сек
Каналы : 2 канала
Расположение каналов : Front: L R
Частота : 48,0 КГц
Частота кадров : 46,875 кадров/сек (1024 SPF)
Метод сжатия : С потерями
Задержка видео : 9 мс.
Размер потока : 53,3 Мбайт (7%)
Язык : Russian
Default : Да
Forced : Нет
Меню
00:00:00.000 : en:00:00:00.000
00:08:31.261 : en:00:08:31.261
00:16:24.901 : en:00:16:24.901
00:24:26.006 : en:00:24:26.006
00:34:57.220 : en:00:34:57.220
00:43:31.400 : en:00:43:31.400
00:52:38.364 : en:00:52:38.364
00:59:45.749 : en:00:59:45.749
01:07:54.737 : en:01:07:54.737
01:16:11.484 : en:01:16:11.484
01:24:30.983 : en:01:24:30.983
01:32:37.886 : en:01:32:37.886
Скриншоты



Релиз от:
Автор Bot
Категория Зарубежные фильмы
InfoHash 5E1FD3600424AC945AAD72068588CE4B2305AEEC
Файлы (1)
Показать файлы
Трекера
Показать трекера
Похожие раздачи

    Нет комментариев

Войти на сайт

Статистика

  • Всего торрентов: 86487
  • Объёмом: 512.4 Тб
  • Сидов: 2678318
  • Личеров: 177014