Подождите, загружаю...

Все раздачи Раздачи по тегам Правила Информация Контакты

Весенний призыв (1976) DVDRip

Весенний призыв (1976) DVDRip
Страна: СССР
Производство: Киностудия им. М. Горького
Жанр: драма
Год выпуска: 1976
Продолжительность: 01:29:22
Перевод: Не требуется
Cубтитры: нет
Оригинальная аудиодорожка: русский
Режиссер: Павел Любимов
В ролях:
Александр Фатюшин, Игорь Костолевский, Анна Каменкова, Александр Постников, Виктор Проскурин, Борис Морозов...
Об актёрах подробней
Описание:
Научить призывников азам солдатской науки поручили сержанту Карпенко. И не ошиблись. Его прирожденные педагогические способности и опыт победили недоверчивость, ироничность и хитрость новобранцев.


Источник: DVD5 R5
Качество видео: DVDRip
Формат видео: AVI
Видео: 704x352 (2,000:1), 25 fps, XviD ~ 965 kbps avg, 0.156 bit/pixel
Аудио: 48 kHz, Dolby Digital AC3 2.0, 192 kbps
MediaInfo

Общее
Полное имя : Vesenniy.prizyv.1976.DVDRip_[New-team]_by_AVP_Studio.avi
Формат : AVI
Формат/Информация : Audio Video Interleave
Размер файла : 745 Мбайт
Продолжительность : 1 ч. 29 м.
Общий поток : 1166 Кбит/сек
Программа кодирования : VirtualDubMod 1.5.10.3 | www.virtualdub-fr.org || (build 2550/release)
Библиотека кодирования : VirtualDubMod build 2550/release
Видео
Идентификатор : 0
Формат : MPEG-4 Visual
Профиль формата : Advanced Simple@L5
Настройки формата : BVOP1 / Custom Matrix
Параметр BVOP формата : 1
Параметр QPel формата : Нет
Параметр GMC формата : Без точки перехода
Параметр матрицы формата : Выборочная
Идентификатор кодека : XVID
Идентификатор кодека/Подсказка : XviD
Продолжительность : 1 ч. 29 м.
Битрейт : 965 Кбит/сек
Ширина : 704 пикселя
Высота : 352 пикселя
Соотношение сторон : 2,000
Частота кадров : 25,000 кадров/сек
Цветовое пространство : YUV
Субдискретизация насыщенности : 4:2:0
Битовая глубина : 8 бит
Тип развёртки : Прогрессивная
Метод сжатия : С потерями
Бит/(Пиксели*Кадры) : 0.156
Размер потока : 617 Мбайт (83%)
Библиотека кодирования : XviD 73
Аудио
Идентификатор : 1
Формат : AC-3
Формат/Информация : Audio Coding 3
Идентификатор кодека : 2000
Продолжительность : 1 ч. 29 м.
Вид битрейта : Постоянный
Битрейт : 192 Кбит/сек
Каналы : 2 канала
Расположение каналов : Front: L R
Частота : 48,0 КГц
Частота кадров : 31,250 кадров/сек (1536 SPF)
Битовая глубина : 16 бит
Метод сжатия : С потерями
Размер потока : 123 Мбайт (16%)
Выравнивание : Разделение по промежуткам
Продолжительность промежутка : 40 мс. (1,00 видеокадр)
Время предзагрузки промежутка : 500 мс

Скриншоты


Автор Bot
Категория Наши фильмы
InfoHash FFF038A9AA168C0AE36C3F3D54C75BEF43126F65
Файлы (1)
Показать файлы
Трекера
Показать трекера
Похожие раздачи
Название Добавлен Размер Сид Лич
Весенний призыв (1976) DVDRip-AVC 12/02/2018 1.1 Гб 15 0

    Нет комментариев

Войти на сайт

Статистика

  • Всего торрентов: 74593
  • Объёмом: 429.6 Тб
  • Сидов: 1993960
  • Личеров: 165282