A PHP Error was encountered

Severity: Notice

Message: Trying to get property 'id' of non-object

Filename: controllers/Torrent.php

Line Number: 25

Backtrace:

File: /home/torr/www/application/controllers/Torrent.php
Line: 25
Function: _error_handler

File: /home/torr/www/public/index.php
Line: 317
Function: require_once

Золотой эшелон (1959) DVDRip-AVC | 1.5 Гб - ToRR.ws

Подождите, загружаю...

Все раздачи Раздачи по тегам Правила Информация Контакты

Золотой эшелон (1959) DVDRip-AVC

Золотой эшелон (1959) DVDRip-AVC
Страна: СССР
Производство: Киностудия им. М. Горького
Жанр: военный
Год выпуска: 1959
Продолжительность: 01:34:19
Перевод: Не требуется
Cубтитры: нет
Оригинальная аудиодорожка: русский
Режиссер: Илья Гурин
В ролях:
Василий Шукшин, Елена Добронравова, Харийс Лиепиньш, Павел Усовниченко, Степан Крылов, Валентина Беляева, Аркадий Трусов, Сюй Сяо-Чжун, Я. Пехура, Б. Штепанек, Михаил Зимин, Валентин Грачёв, Анатолий Юшко, Александр Толстых, Пётр Вишняков, Виктор Кольцов (Кутаков), Ольга Жизнева, Михаил Козаков, Евгений Кузнецов, Александр Шатов, Сергей Папов, Галикс Колчицкий, Алексей Краснопольский...
Об актёрах подробней
Описание:
Зимой 1919 года к сибирским большевикам приезжает из Москвы связная Надя (Елена Добронравова). Она передаёт обращение Ленина: любой ценой спасти находящийся в Омске золотой запас России, помешать Кочаку вывезти его за границу. Боевая группа выработала смелый, но рискованный план. Осуществление его было возложено на венгра Иштвана (Харри Лиепиньш) и рабочего Андрея Низовцева (Василий Шукшин).


Источник: DVD5 R5
Качество видео: DVDRip-AVC
Формат видео: MKV
Видео: 704->761x572 (4:3), 25 fps, H264 ~ 1828 kbps avg, 0.182 bit/pixel
Аудио: 48 kHz, Dolby Digital AC3 5.1, 384 kbps
MediaInfo

Общее
Полное имя : Zolotoy.yeshelon.1959.DVDRip-AVC_[New-team]_by_AVP_Studio.mkv
Формат : Matroska
Версия формата : Version 4 / Version 2
Размер файла : 1,46 Гбайт
Продолжительность : 1 ч. 34 м.
Общий поток : 2214 Кбит/сек
Название фильма : Золотой эшелон AVP Studio
Дата кодирования : UTC 2018-02-05 09:14:18
Программа кодирования : mkvmerge v17.0.0 ('Be Ur Friend') 64-bit
Библиотека кодирования : libebml v1.3.5 + libmatroska v1.4.8
Видео
Идентификатор : 1
Формат : AVC
Формат/Информация : Advanced Video Codec
Профиль формата : High@L4.1
Настройки формата : CABAC / 10 Ref Frames
Параметр CABAC формата : Да
Параметр RefFrames формата : 10 кадров
Идентификатор кодека : V_MPEG4/ISO/AVC
Продолжительность : 1 ч. 34 м.
Битрейт : 1828 Кбит/сек
Ширина : 704 пикселя
Высота : 572 пикселя
Соотношение сторон : 4:3
Режим частоты кадров : Постоянный
Частота кадров : 25,000 кадров/сек
Цветовое пространство : YUV
Субдискретизация насыщенности : 4:2:0
Битовая глубина : 8 бит
Тип развёртки : Прогрессивная
Бит/(Пиксели*Кадры) : 0.182
Размер потока : 1,20 Гбайт (83%)
Заголовок : DVDRip-AVC
Библиотека кодирования : x264 core 130 r2273 b3065e6
Настройки программы : cabac=1 / ref=10 / deblock=1:-2:-1 / analyse=0x3:0x113 / me=umh / subme=10 / psy=1 / psy_rd=1.00:0.00 / mixed_ref=1 / me_range=32 / chroma_me=1 / trellis=2 / 8x8dct=1 / cqm=0 / deadzone=21,11 / fast_pskip=1 / chroma_qp_offset=-2 / threads=6 / lookahead_threads=1 / sliced_threads=0 / nr=0 / decimate=0 / interlaced=0 / bluray_compat=0 / constrained_intra=0 / bframes=8 / b_pyramid=2 / b_adapt=2 / b_bias=0 / direct=3 / weightb=1 / open_gop=0 / weightp=2 / keyint=250 / keyint_min=25 / scenecut=40 / intra_refresh=0 / rc=2pass / mbtree=0 / bitrate=1828 / ratetol=1.0 / qcomp=0.60 / qpmin=0 / qpmax=69 / qpstep=4 / cplxblur=20.0 / qblur=0.5 / ip_ratio=1.40 / pb_ratio=1.30 / aq=1:1.00
Язык : Russian
Default : Да
Forced : Нет
Аудио
Идентификатор : 2
Формат : AC-3
Формат/Информация : Audio Coding 3
Идентификатор кодека : A_AC3
Продолжительность : 1 ч. 34 м.
Вид битрейта : Постоянный
Битрейт : 384 Кбит/сек
Каналы : 6 каналов
Расположение каналов : Front: L C R, Side: L R, LFE
Частота : 48,0 КГц
Частота кадров : 31,250 кадров/сек (1536 SPF)
Битовая глубина : 16 бит
Метод сжатия : С потерями
Размер потока : 259 Мбайт (17%)
Заголовок : Dolby Digital
Язык : Russian
Default : Да
Forced : Нет
Меню
00:00:00.000 : ru:Глава 01
00:05:00.000 : ru:Глава 02
00:10:00.000 : ru:Глава 03
00:15:00.000 : ru:Глава 04
00:20:00.000 : ru:Глава 05
00:25:00.000 : ru:Глава 06
00:30:00.000 : ru:Глава 07
00:35:00.000 : ru:Глава 08
00:40:00.000 : ru:Глава 09
00:45:00.000 : ru:Глава 10
00:50:00.000 : ru:Глава 11
00:55:00.000 : ru:Глава 12
01:00:00.000 : ru:Глава 13
01:05:00.000 : ru:Глава 14
01:10:00.000 : ru:Глава 15
01:15:00.000 : ru:Глава 16
01:20:00.000 : ru:Глава 17
01:25:00.000 : ru:Глава 18
01:30:00.000 : ru:Глава 19

Скриншоты


Автор Bot
Категория Наши фильмы
InfoHash 86BFE1B5C11862B885B0E801FA7A5C94EC865828
Файлы (1)
Показать файлы
Трекера
Показать трекера
Похожие раздачи
Название Добавлен Размер Сид Лич
Золотой эшелон (1959) DVDRip 13/02/2018 1.5 Гб 0 0
Золотой эшелон (1959) DVDRip 13/02/2018 745.8 Мб 7 0

    Нет комментариев

Войти на сайт

Статистика

  • Всего торрентов: 74836
  • Объёмом: 431.7 Тб
  • Сидов: 2001182
  • Личеров: 174240