Подождите, загружаю...

Все раздачи Раздачи по тегам Правила Информация Контакты

Золотой эшелон (1959) DVDRip

Золотой эшелон (1959) DVDRip
Страна: СССР
Производство: Киностудия им. М. Горького
Жанр: военный
Год выпуска: 1959
Продолжительность: 01:34:19
Перевод: Не требуется
Cубтитры: нет
Оригинальная аудиодорожка: русский
Режиссер: Илья Гурин
В ролях:
Василий Шукшин, Елена Добронравова, Харийс Лиепиньш, Павел Усовниченко, Степан Крылов, Валентина Беляева, Аркадий Трусов, Сюй Сяо-Чжун, Я. Пехура, Б. Штепанек, Михаил Зимин, Валентин Грачёв, Анатолий Юшко, Александр Толстых, Пётр Вишняков, Виктор Кольцов (Кутаков), Ольга Жизнева, Михаил Козаков, Евгений Кузнецов, Александр Шатов, Сергей Папов, Галикс Колчицкий, Алексей Краснопольский...
Об актёрах подробней
Описание:
Зимой 1919 года к сибирским большевикам приезжает из Москвы связная Надя (Елена Добронравова). Она передаёт обращение Ленина: любой ценой спасти находящийся в Омске золотой запас России, помешать Кочаку вывезти его за границу. Боевая группа выработала смелый, но рискованный план. Осуществление его было возложено на венгра Иштвана (Харри Лиепиньш) и рабочего Андрея Низовцева (Василий Шукшин).


Источник: DVD5 R5
Качество видео: DVDRip
Формат видео: AVI
Видео: 704x528 (4:3), 25 fps, XviD ~ 1823 kbps avg, 0.196 bit/pixel
Аудио: 48 kHz, Dolby Digital AC3 5.1, 384 kbps
MediaInfo

Общее
Полное имя : Zolotoy.yeshelon.1959.DVDRip_[New-team]_by_AVP_Studio.avi
Формат : AVI
Формат/Информация : Audio Video Interleave
Размер файла : 1,46 Гбайт
Продолжительность : 1 ч. 34 м.
Общий поток : 2216 Кбит/сек
Программа кодирования : VirtualDubMod 1.5.10.3 | www.virtualdub-fr.org || (build 2550/release)
Библиотека кодирования : VirtualDubMod build 2550/release
Видео
Идентификатор : 0
Формат : MPEG-4 Visual
Профиль формата : Advanced Simple@L5
Настройки формата : BVOP1 / Custom Matrix
Параметр BVOP формата : 1
Параметр QPel формата : Нет
Параметр GMC формата : Без точки перехода
Параметр матрицы формата : Выборочная
Идентификатор кодека : XVID
Идентификатор кодека/Подсказка : XviD
Продолжительность : 1 ч. 34 м.
Битрейт : 1823 Кбит/сек
Ширина : 704 пикселя
Высота : 528 пикселей
Соотношение сторон : 4:3
Частота кадров : 25,000 кадров/сек
Цветовое пространство : YUV
Субдискретизация насыщенности : 4:2:0
Битовая глубина : 8 бит
Тип развёртки : Прогрессивная
Метод сжатия : С потерями
Бит/(Пиксели*Кадры) : 0.196
Размер потока : 1,20 Гбайт (82%)
Библиотека кодирования : XviD 73
Аудио
Идентификатор : 1
Формат : AC-3
Формат/Информация : Audio Coding 3
Идентификатор кодека : 2000
Продолжительность : 1 ч. 34 м.
Вид битрейта : Постоянный
Битрейт : 384 Кбит/сек
Каналы : 6 каналов
Расположение каналов : Front: L C R, Side: L R, LFE
Частота : 48,0 КГц
Частота кадров : 31,250 кадров/сек (1536 SPF)
Битовая глубина : 16 бит
Метод сжатия : С потерями
Размер потока : 259 Мбайт (17%)
Выравнивание : Разделение по промежуткам
Продолжительность промежутка : 40 мс. (1,00 видеокадр)
Время предзагрузки промежутка : 500 мс

Скриншоты


Автор Bot
Категория Наши фильмы
InfoHash BC74D51AC02932631483A61E860C8F0CEF485E05
Файлы (1)
Показать файлы
Трекера
Показать трекера
Похожие раздачи
Название Добавлен Размер Сид Лич
Золотой эшелон (1959) DVDRip 13/02/2018 745.8 Мб 7 0
Золотой эшелон (1959) DVDRip-AVC 13/02/2018 1.5 Гб 16 0

    Нет комментариев

Войти на сайт

Статистика

  • Всего торрентов: 74593
  • Объёмом: 429.6 Тб
  • Сидов: 1993960
  • Личеров: 165282