A PHP Error was encountered

Severity: Notice

Message: Trying to get property 'id' of non-object

Filename: controllers/Torrent.php

Line Number: 25

Backtrace:

File: /home/torr/www/application/controllers/Torrent.php
Line: 25
Function: _error_handler

File: /home/torr/www/public/index.php
Line: 317
Function: require_once

Наш мультяшный президент / Our Cartoon President [01x01-02 из 10] WEB-DLRip 720p | ColdFilm | 1.5 Гб - ToRR.ws

Подождите, загружаю...

Все раздачи Раздачи по тегам Правила Информация Контакты

Наш мультяшный президент / Our Cartoon President [01x01-02 из 10] WEB-DLRip 720p | ColdFilm

Наш мультяшный президент / Our Cartoon President [01x01-02 из 10] WEB-DLRip 720p | ColdFilm

Информация о фильме
Название: Наш мультяшный президент
Оригинальное название: Our Cartoon President
Год выпуска: 2018
Жанр: Комедия
Режиссер: Стивен Колберт, Мэтт Лаппин
В ролях: Эмили Линн, Джефф Бергман, Габриэль Гундакер
О фильме:
«Наш мультяшный президент» — это анимационная «офисная» комедия, в которой кабинет начальника — овальный. Главные герои сериала, созданного политическим сатириком Стивеном Колбером, — президент США Дональд Трамп, его семья, министры, советники, главы других государств и прочие гости и обитатели Белого дома. Каждая серия — это типичный день из жизни самого скандального и неоднозначного президента в истории Штатов. Шоу не только рассказывает в юмористической форме о буднях Белого дома, но также исследует психику и мотивацию приближенных президента, чтобы понять, что делает их «трампинистами».

Страна: США
Студия: SHOWTIME, CBS Television Studios, Spartina Productions
Продолжительность: 2x ~00:24:00
Перевод: Любительский многоголосый [ColdFilm]
Файл
Кодек: x.264 (AVC)
Качество: WEB-DLRip 720p
Видео: ~2000 Кбит/с, 1280x720, 29.970 fps
Аудио: Русский (AAC, 2 ch, 125 Кбит/с)

Скриншоты


MediaInfo
General
Unique ID : 236174487157669027948113357630078163749 (0xB1AD8D3BAB3DD5A3A5DBE9D417939B25)
Complete name : D:Our.Cartoon.President.S01E01.720p.ColdFilm.mkv
Format : Matroska
Format version : Version 2
File size : 795 MiB
Duration : 26 min 47 s
Overall bit rate : 4 147 kb/s
Encoded date : UTC 2018-02-12 16:34:22 / UTC 2017-11-20 18:25:40
Writing application : mkvmerge v3.3.0 ('Language') built on Mar 24 2010 14:59:24
Writing library : libebml v0.8.0 + libmatroska v0.9.0 / Lavf54.63.104
Video
ID : 1
Format : AVC
Format/Info : Advanced Video Codec
Format profile : Main@L3.1
Format settings : CABAC / 1 Ref Frames
Format settings, CABAC : Yes
Format settings, ReFrames : 1 frame
Codec ID : V_MPEG4/ISO/AVC
Duration : 26 min 47 s
Bit rate : 4 000 kb/s
Width : 1 280 pixels
Height : 720 pixels
Display aspect ratio : 16:9
Frame rate mode : Constant
Frame rate : 25.000 FPS
Color space : YUV
Chroma subsampling : 4:2:0
Bit depth : 8 bits
Scan type : Progressive
Bits/(Pixel*Frame) : 0.174
Stream size : 742 MiB (93%)
Writing library : x264 core 129
Encoding settings : cabac=1 / ref=1 / deblock=1:0:0 / analyse=0x1:0x131 / me=dia / subme=2 / psy=1 / psy_rd=1.00:0.00 / mixed_ref=0 / me_range=16 / chroma_me=1 / trellis=0 / 8x8dct=0 / cqm=0 / deadzone=21,11 / fast_pskip=1 / chroma_qp_offset=0 / threads=4 / lookahead_threads=1 / sliced_threads=0 / nr=0 / decimate=1 / interlaced=0 / bluray_compat=0 / constrained_intra=0 / bframes=0 / weightp=2 / keyint=250 / keyint_min=25 / scenecut=40 / intra_refresh=0 / rc_lookahead=40 / rc=abr / mbtree=1 / bitrate=4000 / ratetol=1.0 / qcomp=0.60 / qpmin=10 / qpmax=51 / qpstep=4 / ip_ratio=1.41 / aq=1:1.00
Default : No
Forced : No
Audio
ID : 2
Format : AC-3
Format/Info : Audio Coding 3
Codec ID : A_AC3
Duration : 26 min 47 s
Bit rate mode : Constant
Bit rate : 192 kb/s
Channel(s) : 2 channels
Channel positions : Front: L R
Sampling rate : 48.0 kHz
Frame rate : 31.250 FPS (1536 SPF)
Bit depth : 16 bits
Compression mode : Lossy
Stream size : 36.8 MiB (5%)
Service kind : Complete Main
Default : Yes
Forced : No

Релиз от:
Автор Bot
Категория Мультипликация
InfoHash 68651F64CD3FF877D77ECA2A32F543AAD61F7FA2
Файлы (2)
Показать файлы
Трекера
Показать трекера
Похожие раздачи

    Нет комментариев

Войти на сайт

Статистика

  • Всего торрентов: 74836
  • Объёмом: 431.7 Тб
  • Сидов: 2001182
  • Личеров: 174240