Подождите, загружаю...

Все раздачи Раздачи по тегам Правила Информация Контакты

Парадокс Кловерфилда / Частица Бога / The Cloverfield Paradox (2018) WEBRip-AVC | NewStudio

Парадокс Кловерфилда / Частица Бога / The Cloverfield Paradox (2018) WEBRip-AVC | NewStudio


Группа New-Team ВКонтакте
Подписывайтесь так же на мою группу ВКонтакте stalkerok | AVC рипы
Ссылка в группе New-Team
Присоединяйтесь!

Парадокс Кловерфилда / Частица Бога
The Cloverfield Paradox
«The Future Unleashed... Every Thing»



Страна: США
Жанр: ужасы, фантастика, триллер, детектив
Год выпуска: 2018
Продолжительность: 01:42:26
Перевод: Профессиональный (многоголосый, закадровый) [NewStudio]
Субтитры: русские (полные)
Оригинальная аудиодорожка: нет
Режиссер: Джулиус Она / Julius Onah
В ролях: Гугу Эмбата-Ро, Дэвид Ойелоуо, Даниэль Брюль, Крис О’Дауд, Аксель Хенни, Чжан Цзыи, Элизабет Дебики, Роджер Дейвис, Джон Ортис, Jordan Rivera
Описание:
В то время как земной мир пребывает на грани войны за ресурсы, в космосе группа учёных проводит испытания устройства, которое способно решить проблему энергетического кризиса. Несколько неудачных попыток вводят учёных в отчаяние. Топлива осталось на три запуска, и когда вдруг происходит удачный запуск устройства, радость длится недолго - команде предстоит иметь дело с очень странными явлениями.
События, о которых рассказывается в фильме, произошли до событий, описанных в фильме Мэтта Ривза «Монстро» (2008).

Релиз:
Автор рипа: stalkerok
Сэмпл
Качество видео: WEBRip-AVC [The.Cloverfield.Paradox.2018.iNTERNAL.1080p.WEB.x264-STRiFE]
Формат видео: MKV
Видео кодек: AVC
Аудио кодек: AC3
Видео: 1588 Кбит/сек, 1020x424 (2.40:1), 23,976 кадр/сек, AVC
Аудио: русский, 384 Кбит/сек, 48 КГц, 5.1, AC3


x264/MediaInfo

---[Information] [06.02.2018 17:13:01] x264 [info]: frame I:1209 Avg QP:14.76 size: 50234
---[Information] [06.02.2018 17:13:01] x264 [info]: frame P:32537 Avg QP:18.89 size: 17640
---[Information] [06.02.2018 17:13:01] x264 [info]: frame B:113623 Avg QP:20.50 size: 5154
Общее
Уникальный идентификатор : 236312591409989873561445822023146617964 (0xB1C8264C659CC4FDBBBB424A01773C6C)
Полное имя : M:$newThe Cloverfield ParadoxNewStudioThe.Cloverfield.Paradox.2018.WEBRip-AVC.NewStudio.RUS.stalkerok.new-team.mkv
Формат : Matroska
Версия формата : Version 4 / Version 2
Размер файла : 1,41 Гбайт
Продолжительность : 1 ч. 42 м.
Общий поток : 1972 Кбит/сек
Название фильма : The Cloverfield Paradox (2018) (Rip by stalkerok)
Дата кодирования : UTC 2018-02-13 12:50:17
Программа кодирования : mkvmerge v8.6.1 ('Flying') 64bit
Библиотека кодирования : libebml v1.3.3 + libmatroska v1.4.4
Видео
Идентификатор : 1
Формат : AVC
Формат/Информация : Advanced Video Codec
Профиль формата : High@L4.1
Параметр CABAC формата : Да
Параметр ReFrames формата : 12 кадров
Идентификатор кодека : V_MPEG4/ISO/AVC
Продолжительность : 1 ч. 42 м.
Битрейт : 1588 Кбит/сек
Ширина : 1020 пикселей
Высота : 424 пикселя
Соотношение сторон : 2,40:1
Режим частоты кадров : Постоянный
Частота кадров : 23,976 (24000/1001) кадра/сек
Цветовое пространство : YUV
Субдискретизация насыщенности : 4:2:0
Битовая глубина : 8 бит
Тип развёртки : Прогрессивная
Бит/(Пиксели*Кадры) : 0.153
Размер потока : 1,14 Гбайт (81%)
Заголовок : The Cloverfield Paradox (2018) (Rip by stalkerok)
Библиотека кодирования : x264 core 152 r2851kMod ba24899
Настройки программы : cabac=1 / ref=12 / deblock=1:-2:-1 / analyse=0x3:0x133 / me=umh / subme=11 / psy=1 / fade_compensate=0.00 / psy_rd=1.00:0.00 / mixed_ref=1 / me_range=32 / chroma_me=1 / trellis=2 / 8x8dct=1 / cqm=0 / deadzone=21,11 / fast_pskip=0 / chroma_qp_offset=-2 / threads=12 / lookahead_threads=3 / sliced_threads=0 / nr=0 / decimate=0 / interlaced=0 / bluray_compat=0 / constrained_intra=0 / bframes=15 / b_pyramid=2 / b_adapt=2 / b_bias=0 / direct=3 / weightb=1 / open_gop=0 / weightp=2 / keyint=240 / keyint_min=23 / scenecut=40 / intra_refresh=0 / rc_lookahead=60 / rc=2pass / mbtree=0 / bitrate=1588 / ratetol=1.0 / qcomp=0.65 / qpmin=0 / qpmax=69 / qpstep=4 / cplxblur=20.0 / qblur=0.5 / vbv_maxrate=50000 / vbv_bufsize=62500 / nal_hrd=none / filler=0 / ip_ratio=1.40 / pb_ratio=1.30 / aq=3:0.80 / zones=138661,147368,q=34
Default : Да
Forced : Нет
Аудио
Идентификатор : 3
Формат : AC-3
Формат/Информация : Audio Coding 3
Расширение режима : CM (complete main)
Параметр Endianness формата : Big
Идентификатор кодека : A_AC3
Продолжительность : 1 ч. 41 м.
Вид битрейта : Постоянный
Битрейт : 384 Кбит/сек
Каналы : 6 каналов
Расположение каналов : Front: L C R, Side: L R, LFE
Частота : 48,0 КГц
Частота кадров : 31,250 кадров/сек (1536 spf)
Метод сжатия : С потерями
Размер потока : 280 Мбайт (19%)
Заголовок : NewStudio
Язык : Russian
Default : Да
Forced : Нет
Текст
Идентификатор : 2
Формат : UTF-8
Идентификатор кодека : S_TEXT/UTF8
Идентификатор кодека/Информация : UTF-8 Plain Text
Продолжительность : 1 ч. 39 м.
Битрейт : 76 бит/сек
Count of elements : 1166
Размер потока : 55,7 Кбайт (0%)
Заголовок : перевод Physkids
Язык : Russian
Default : Нет
Forced : Нет



Автор Bot
Категория Зарубежные фильмы
InfoHash D75D7094B81FA41BA8C73CAC7B975B3D4D50C344
Файлы (1)
Показать файлы
Трекера
Показать трекера
Похожие раздачи

    Нет комментариев

Войти на сайт

Статистика

  • Всего торрентов: 74593
  • Объёмом: 429.6 Тб
  • Сидов: 1993960
  • Личеров: 165282