Подождите, загружаю...

Все раздачи Раздачи по тегам Правила Информация Контакты

Парадокс Кловерфилда / Частица Бога / The Cloverfield Paradox (2018) WEBRip-AVC | NewStudio

Парадокс Кловерфилда / Частица Бога / The Cloverfield Paradox (2018) WEBRip-AVC | NewStudio


Группа New-Team ВКонтакте
Подписывайтесь так же на мою группу ВКонтакте stalkerok | AVC рипы
Ссылка в группе New-Team
Присоединяйтесь!

Парадокс Кловерфилда / Частица Бога
The Cloverfield Paradox
«The Future Unleashed... Every Thing»



Страна: США
Жанр: ужасы, фантастика, триллер, детектив
Год выпуска: 2018
Продолжительность: 01:42:26
Перевод: Профессиональный (многоголосый, закадровый) [NewStudio]
Субтитры: русские (полные), английские (форсированные, полные, SDH)
Оригинальная аудиодорожка: английский
Режиссер: Джулиус Она / Julius Onah
В ролях: Гугу Эмбата-Ро, Дэвид Ойелоуо, Даниэль Брюль, Крис О’Дауд, Аксель Хенни, Чжан Цзыи, Элизабет Дебики, Роджер Дейвис, Джон Ортис, Jordan Rivera
Описание:
В то время как земной мир пребывает на грани войны за ресурсы, в космосе группа учёных проводит испытания устройства, которое способно решить проблему энергетического кризиса. Несколько неудачных попыток вводят учёных в отчаяние. Топлива осталось на три запуска, и когда вдруг происходит удачный запуск устройства, радость длится недолго - команде предстоит иметь дело с очень странными явлениями.
События, о которых рассказывается в фильме, произошли до событий, описанных в фильме Мэтта Ривза «Монстро» (2008).

Автор рипа: stalkerok
Сэмпл
Качество видео: WEBRip-AVC [The.Cloverfield.Paradox.2018.iNTERNAL.1080p.WEB.x264-STRiFE]
Формат видео: MKV
Видео кодек: AVC
Аудио кодек: AC3
Видео: 2153 Кбит/сек, 1150x478 (2.40:1), 23,976 кадр/сек, AVC
Аудио #1: русский, 384 Кбит/сек, 48 КГц, 5.1, AC3
Аудио #2: английский, 448 Кбит/сек, 48 КГц, 5.1, AC3


x264/MediaInfo

---[Information] [07.02.2018 14:54:04] x264 [info]: frame I:1186 Avg QP:14.25 size: 62985
---[Information] [07.02.2018 14:54:04] x264 [info]: frame P:32582 Avg QP:18.17 size: 23824
---[Information] [07.02.2018 14:54:04] x264 [info]: frame B:113601 Avg QP:19.74 size: 7071
Общее
Уникальный идентификатор : 184369615544345013698315091198534079877 (0x8AB44BDD045985789B082EFDFE41D585)
Полное имя : M:$newThe Cloverfield ParadoxNewStudioThe.Cloverfield.Paradox.2018.WEBRip-AVC.NewStudio.RUS.ENG.stalkerok.new-team.mkv
Формат : Matroska
Версия формата : Version 4 / Version 2
Размер файла : 2,13 Гбайт
Продолжительность : 1 ч. 42 м.
Общий поток : 2982 Кбит/сек
Название фильма : The Cloverfield Paradox (2018) (Rip by stalkerok)
Дата кодирования : UTC 2018-02-13 13:06:17
Программа кодирования : mkvmerge v8.6.1 ('Flying') 64bit
Библиотека кодирования : libebml v1.3.3 + libmatroska v1.4.4
Видео
Идентификатор : 3
Формат : AVC
Формат/Информация : Advanced Video Codec
Профиль формата : High@L4.1
Параметр CABAC формата : Да
Параметр ReFrames формата : 12 кадров
Идентификатор кодека : V_MPEG4/ISO/AVC
Продолжительность : 1 ч. 42 м.
Битрейт : 2153 Кбит/сек
Ширина : 1150 пикселей
Высота : 478 пикселей
Соотношение сторон : 2,40:1
Режим частоты кадров : Постоянный
Частота кадров : 23,976 (24000/1001) кадра/сек
Цветовое пространство : YUV
Субдискретизация насыщенности : 4:2:0
Битовая глубина : 8 бит
Тип развёртки : Прогрессивная
Бит/(Пиксели*Кадры) : 0.163
Размер потока : 1,54 Гбайт (72%)
Заголовок : The Cloverfield Paradox (2018) (Rip by stalkerok)
Библиотека кодирования : x264 core 152 r2851kMod ba24899
Настройки программы : cabac=1 / ref=12 / deblock=1:-2:-1 / analyse=0x3:0x133 / me=umh / subme=10 / psy=1 / fade_compensate=0.00 / psy_rd=1.00:0.00 / mixed_ref=1 / me_range=32 / chroma_me=1 / trellis=2 / 8x8dct=1 / cqm=0 / deadzone=21,11 / fast_pskip=0 / chroma_qp_offset=-2 / threads=12 / lookahead_threads=3 / sliced_threads=0 / nr=0 / decimate=0 / interlaced=0 / bluray_compat=0 / constrained_intra=0 / bframes=14 / b_pyramid=2 / b_adapt=2 / b_bias=0 / direct=3 / weightb=1 / open_gop=0 / weightp=2 / keyint=240 / keyint_min=23 / scenecut=40 / intra_refresh=0 / rc_lookahead=60 / rc=2pass / mbtree=0 / bitrate=2153 / ratetol=1.0 / qcomp=0.65 / qpmin=0 / qpmax=69 / qpstep=4 / cplxblur=20.0 / qblur=0.5 / vbv_maxrate=50000 / vbv_bufsize=62500 / nal_hrd=none / filler=0 / ip_ratio=1.40 / pb_ratio=1.30 / aq=3:0.80 / zones=138661,147368,q=30
Default : Да
Forced : Нет
Аудио #1
Идентификатор : 1
Формат : AC-3
Формат/Информация : Audio Coding 3
Расширение режима : CM (complete main)
Параметр Endianness формата : Big
Идентификатор кодека : A_AC3
Продолжительность : 1 ч. 41 м.
Вид битрейта : Постоянный
Битрейт : 384 Кбит/сек
Каналы : 6 каналов
Расположение каналов : Front: L C R, Side: L R, LFE
Частота : 48,0 КГц
Частота кадров : 31,250 кадров/сек (1536 spf)
Метод сжатия : С потерями
Размер потока : 280 Мбайт (13%)
Заголовок : NewStudio
Язык : Russian
Default : Да
Forced : Нет
Аудио #2
Идентификатор : 4
Формат : E-AC-3
Формат/Информация : Audio Coding 3
Параметр Endianness формата : Big
Идентификатор кодека : A_EAC3
Продолжительность : 1 ч. 41 м.
Вид битрейта : Постоянный
Битрейт : 448 Кбит/сек
Каналы : 6 каналов
Расположение каналов : Front: L C R, Side: L R, LFE
Частота : 48,0 КГц
Частота кадров : 187,500 кадров/сек (256 spf)
Метод сжатия : С потерями
Размер потока : 326 Мбайт (15%)
Язык : English
Default : Нет
Forced : Нет
Текст #1
Идентификатор : 2
Формат : UTF-8
Идентификатор кодека : S_TEXT/UTF8
Идентификатор кодека/Информация : UTF-8 Plain Text
Продолжительность : 1 ч. 39 м.
Битрейт : 76 бит/сек
Count of elements : 1166
Размер потока : 55,7 Кбайт (0%)
Заголовок : перевод Physkids
Язык : Russian
Default : Нет
Forced : Нет
Текст #2
Идентификатор : 5
Формат : UTF-8
Идентификатор кодека : S_TEXT/UTF8
Идентификатор кодека/Информация : UTF-8 Plain Text
Продолжительность : 47 м.
Битрейт : 3 бит/сек
Count of elements : 39
Размер потока : 1,23 Кбайт (0%)
Заголовок : Forced
Язык : English
Default : Нет
Forced : Нет
Текст #3
Идентификатор : 6
Формат : UTF-8
Идентификатор кодека : S_TEXT/UTF8
Идентификатор кодека/Информация : UTF-8 Plain Text
Продолжительность : 1 ч. 35 м.
Битрейт : 47 бит/сек
Count of elements : 1123
Размер потока : 33,5 Кбайт (0%)
Язык : English
Default : Нет
Forced : Нет
Текст #4
Идентификатор : 7
Формат : UTF-8
Идентификатор кодека : S_TEXT/UTF8
Идентификатор кодека/Информация : UTF-8 Plain Text
Продолжительность : 1 ч. 36 м.
Битрейт : 59 бит/сек
Count of elements : 1399
Размер потока : 41,9 Кбайт (0%)
Заголовок : SDH
Язык : English
Default : Нет
Forced : Нет



Автор Bot
Категория Зарубежные фильмы
InfoHash AE058F0B33B94204A4AE05DF790CFA905B3F05EF
Файлы (1)
Показать файлы
Трекера
Показать трекера
Похожие раздачи

    Нет комментариев

Войти на сайт

Статистика

  • Всего торрентов: 74593
  • Объёмом: 429.6 Тб
  • Сидов: 1993960
  • Личеров: 165282