Все раздачи Раздачи по тегам Правила Информация Контакты

Мизери / Misery (1990) BDRemux 1080p | P, A

Мизери / Misery (1990) BDRemux 1080p | P, A


Информация о фильме
Название: Мизери
Оригинальное название: Misery
Год выхода: 1990
Жанр: Ужасы, триллер, драма
Режиссер: Роб Райнер / Rob Reiner
В ролях: Джеймс Каан, Кэти Бейтс, Ричард Фарнсворт, Фрэнсис Штернхеген, Лорен Бэколл, Грэм Джарвис, Джерри Поттер, Томас Брюнелль, Джун Кристофер, Джули Пэйн
О фильме: Писатель Пол Шелдон не помнит сильного снегопада, из-за которого он разбился на своей машине где-то в горах. Он также не помнит, как его нашла и спасла от неминуемой смерти женщина. Все, что он помнит, это лишь то, как он проснулся в доме Энни Вилкс — ярой поклонницы его романов, которая не желает расставаться со своим любимым автором…

Страна: США
Студия: Castle Rock Entertainment
Продолжительность: 01:47:23
Перевод: профессиональный (многоголосый), авторский (одноголосый)
Субтитры: русские, английские
Файл
Формат: MKV
Качество: BDRemux 1080p
Видео: MPEG-4 AVC Video / 1920х1080 / 30961 kbps / 23.976 fps
Звук:
Аудио 1: Русский, AC-3, 5.1 ch, 48 kHz, 16 bit, 448 kbps - Многоголосый (Киномания)
Аудио 2: Русский, DTS, 5.1 ch, 48 kHz, 24 bit, 768 kbps - Многоголосый (Blu-Ray CEE)
Аудио 3: Русский, DTS, 5.1 ch, 48 kHz, 24 bit, 1536 kbps - Авторский (Михалёв)
Аудио 4: English, DTS-HD MA, 5.1 ch, 48 kHz, 24 bit, 3855 kbps - Оригинал

MediaInfo
Format : Matroska
Format version : Version 2
File size : 28.1 GiB
Duration : 1 h 47 min
Overall bit rate mode : Variable
Overall bit rate : 37.5 Mb/s
Movie name : Мизери / Misery (1990) BDRemux 1080p
Encoded date : UTC 2017-11-13 17:01:49
Writing application : mkvmerge v4.9.1 ('Ich will') сборка от Jul 11 2011 23:53:15
Writing library : libebml v1.2.1 + libmatroska v1.1.1
Video
ID : 1
Format : AVC
Format/Info : Advanced Video Codec
Format profile : High@L4.1
Format settings, CABAC : Yes
Format settings, RefFrames : 4 frames
Codec ID : V_MPEG4/ISO/AVC
Duration : 1 h 47 min
Bit rate mode : Variable
Maximum bit rate : 33.0 Mb/s
Width : 1 920 pixels
Height : 1 080 pixels
Display aspect ratio : 16:9
Frame rate mode : Constant
Frame rate : 23.976 (24000/1001) FPS
Color space : YUV
Chroma subsampling : 4:2:0
Bit depth : 8 bits
Scan type : Progressive
Title : Мизери / Misery (1990)
Language : English
Default : Yes
Forced : No
Color range : Limited
Color primaries : BT.709
Transfer characteristics : BT.709
Matrix coefficients : BT.709
Audio #1
ID : 2
Format : AC-3
Format/Info : Audio Coding 3
Format settings, Endianness : Big
Codec ID : A_AC3
Duration : 1 h 47 min
Bit rate mode : Constant
Bit rate : 448 kb/s
Channel(s) : 6 channels
Channel positions : Front: L C R, Side: L R, LFE
Sampling rate : 48.0 kHz
Frame rate : 31.250 FPS (1536 SPF)
Bit depth : 16 bits
Compression mode : Lossy
Stream size : 344 MiB (1%)
Title : AC-3, 5.1 ch, 48 kHz, 448 kbps - Многоголосый (Киномания)
Language : Russian
Service kind : Complete Main
Default : Yes
Forced : No
Audio #2
ID : 3
Format : DTS
Format/Info : Digital Theater Systems
Mode : 16
Format settings, Endianness : Big
Codec ID : A_DTS
Duration : 1 h 47 min
Bit rate mode : Constant
Bit rate : 768 kb/s
Channel(s) : 6 channels
Channel positions : Front: L C R, Side: L R, LFE
Sampling rate : 48.0 kHz
Frame rate : 93.750 FPS (512 SPF)
Bit depth : 24 bits
Compression mode : Lossy
Stream size : 590 MiB (2%)
Title : DTS, 5.1 ch, 48 kHz, 24 bit, 768 kbps - Многоголосый (Blu-Ray CEE)
Language : Russian
Default : No
Forced : No
Audio #3
ID : 4
Format : DTS
Format/Info : Digital Theater Systems
Mode : 16
Format settings, Endianness : Big
Codec ID : A_DTS
Duration : 1 h 47 min
Bit rate mode : Constant
Bit rate : 1 510 kb/s
Channel(s) : 6 channels
Channel positions : Front: L C R, Side: L R, LFE
Sampling rate : 48.0 kHz
Frame rate : 93.750 FPS (512 SPF)
Bit depth : 24 bits
Compression mode : Lossy
Stream size : 1.13 GiB (4%)
Title : DTS, 5.1 ch, 48 kHz, 24 bit, 1536 kbps - Авторский (Михалёв)
Language : Russian
Default : No
Forced : No
Audio #4
ID : 5
Format : DTS
Format/Info : Digital Theater Systems
Format profile : MA / Core
Mode : 16
Format settings, Endianness : Big
Codec ID : A_DTS
Duration : 1 h 47 min
Bit rate mode : Variable / Constant
Bit rate : Unknown / 1 509 kb/s
Channel(s) : 6 channels
Channel positions : Front: L C R, Side: L R, LFE
Sampling rate : 48.0 kHz
Frame rate : 93.750 FPS (512 SPF)
Bit depth : 24 bits
Compression mode : Lossless / Lossy
Title : DTS-HD MA, 5.1 ch, 48 kHz, 24 bit, 3855 kbps - English
Language : English
Default : No
Forced : No
Text #1
ID : 6
Format : UTF-8
Codec ID : S_TEXT/UTF8
Codec ID/Info : UTF-8 Plain Text
Title : Русские
Language : Russian
Default : No
Forced : No
Text #2
ID : 7
Format : UTF-8
Codec ID : S_TEXT/UTF8
Codec ID/Info : UTF-8 Plain Text
Title : Английские
Language : English
Default : No
Forced : No
Автор Bot
Категория Зарубежные фильмы
InfoHash BE1A333F6E14877831B8BFA6F90054CAB01057EF
Файлы (1)
Показать файлы
Трекера
Показать трекера
Похожие раздачи
Название Добавлен Размер Сид Лич
Мизери / Misery (1990) BDRemux 1080p | P, A | Лицензия 30/04/2018 28.1 Гб 0 0
Мизери / Misery (1990) BDRip-AVC DrVampir | P, A 27/04/2018 2.2 Гб 6 0
Мизери / Misery (1990) BDRip 22/12/2017 2.2 Гб 10 0

    Нет комментариев

Войти на сайт

Статистика

  • Всего торрентов: 86487
  • Объёмом: 512.4 Тб
  • Сидов: 2679159
  • Личеров: 177030