Все раздачи Раздачи по тегам Правила Информация Контакты

Прометей / Prometheus (2012) UHD BDRemux 2160p | 4K | HDR | D, A | Лицензия

Прометей / Prometheus (2012) UHD BDRemux 2160p | 4K | HDR | D, A | Лицензия

Производство: США, Великобритания / Dune Entertainment
Жанр: фантастика, детектив, приключения
Режиссер: Ридли Скотт
Продюсер: Дэвид Гайлер, Уолтер Хилл, Ридли Скотт
Актеры: Нуми Рапас, Майкл Фассбендер, Шарлиз Терон, Идрис Эльба, Гай Пирс, Логан Маршалл-Грин, Шон Харрис, Рейф Сполл, Иман Эллиотт, Бенедикт Вонг
Описание:
В поисках сакрального знания группа ученых отправляется в самые темные и неизведанные чертоги вселенной. Именно там, в отдаленных мирах, находясь на пределе своих умственных и физических возможностей, им предстоит вступить в безжалостную схватку за будущее всего человечества.

Релиз от: TERMiNAL, BLUEBIRD
Продолжительность: 02:03:46
Качество: UHD BDRemux (HDR)
Перевод: Дублированный (Лицензия BD EUR), Авторский (одноголосый, закадровый) (А. Гаврилов, В. Горчаков, Ю. Сербин)
Субтитры: Русские (Full-length, Commentary #1, Commentary #2), Украинские (Full-length), Английские
Видео: HEVC/H.265, 3840x2160p, (16:9), 34.7 Mb/s, 23,976 fps
Аудио: DTS, 6 ch, 768 kbps - Русский, Дубляж
Аудио: AC3, 6 ch, 448 kbps - Украинский
Аудио: DTS-HD MA, 8 ch, 5016 kbps - Русский, А. Гаврилов
Аудио: DTS-HD MA, 8 ch, 5013 kbps - Русский, В. Горчаков
Аудио: DTS-HD MA, 8 ch, 5011 kbps - Русский, Ю. Сербин
Аудио: DTS-HD MA, 8 ch, 4987 kbps - Английский
Аудио: AC3, 2 ch, 224 kbps - Английский, комментарии > Ridley Scott
Аудио: AC3, 2 ch, 224 kbps - Английский, комментарии > John Spates
MediaInfo:
Video
ID : 1
Format : HEVC
Format/Info : High Efficiency Video Coding
Format profile : Main 10@L5.1@High
Codec ID : V_MPEGH/ISO/HEVC
Duration : 2 h 3 min
Bit rate : 34.7 Mb/s
Width : 3 840 pixels
Height : 2 160 pixels
Display aspect ratio : 16:9
Frame rate mode : Constant
Frame rate : 23.976 (24000/1001) FPS
Color space : YUV
Chroma subsampling : 4:2:0 (Type 2)
Bit depth : 10 bits
Bits/(Pixel*Frame) : 0.174
Stream size : 30.0 GiB (61%)
Title : PROMETHEUS_BD_UHD_REMUX-BLUEBIRD
Default : Yes
Forced : No
Color range : Limited
Color primaries : BT.2020
Transfer characteristics : PQ
Matrix coefficients : BT.2020 non-constant
Mastering display color pri : R: x=0.680000 y=0.320000, G: x=0.265000 y=0.690000, B: x=0.150000 y=0.060000, White point: x=0.312700 y=0.329000
Mastering display luminance : min: 0.0050 cd/m2, max: 1000.0000 cd/m2
Audio #1
ID : 2
Format : DTS
Format/Info : Digital Theater Systems
Mode : 16
Format settings, Endianness : Big
Codec ID : A_DTS
Duration : 2 h 3 min
Bit rate mode : Constant
Bit rate : 768 kb/s
Channel(s) : 6 channels
Channel positions : Front: L C R, Side: L R, LFE
Sampling rate : 48.0 kHz
Frame rate : 93.750 FPS (512 SPF)
Bit depth : 24 bits
Compression mode : Lossy
Stream size : 680 MiB (1%)
Title : [DUB] DTS 5.1 @ 768 kbps
Language : Russian
Default : Yes
Forced : No
Audio #2
ID : 3
Format : AC-3
Format/Info : Audio Coding 3
Format settings, Endianness : Big
Codec ID : A_AC3
Duration : 2 h 3 min
Bit rate mode : Constant
Bit rate : 448 kb/s
Channel(s) : 6 channels
Channel positions : Front: L C R, Side: L R, LFE
Sampling rate : 48.0 kHz
Frame rate : 31.250 FPS (1536 SPF)
Bit depth : 16 bits
Compression mode : Lossy
Stream size : 397 MiB (1%)
Title : [DUB] DD 5.1 @ 448 kbps
Language : Ukrainian
Service kind : Complete Main
Default : No
Forced : No
Audio #3
ID : 4
Format : DTS
Format/Info : Digital Theater Systems
Format profile : MA / Core
Mode : 16
Format settings, Endianness : Big
Codec ID : A_DTS
Duration : 2 h 3 min
Bit rate mode : Variable / Constant
Bit rate : 5 016 kb/s / 1 509 kb/s
Channel(s) : 8 channels / 6 channels
Channel positions : Front: L C R, Side: L R, Back: L R, LFE / Front: L C R, Side: L R, LFE
Sampling rate : 48.0 kHz
Frame rate : 93.750 FPS (512 SPF)
Bit depth : 24 bits
Compression mode : Lossless / Lossy
Stream size : 4.34 GiB (9%)
Title : [VO] DTS-HD MA 7.1 @ 5016 kbps (A. Gavrilov)
Language : Russian
Default : No
Forced : No
Audio #4
ID : 5
Format : DTS
Format/Info : Digital Theater Systems
Format profile : MA / Core
Mode : 16
Format settings, Endianness : Big
Codec ID : A_DTS
Duration : 2 h 3 min
Bit rate mode : Variable / Constant
Bit rate : 5 013 kb/s / 1 509 kb/s
Channel(s) : 8 channels / 6 channels
Channel positions : Front: L C R, Side: L R, Back: L R, LFE / Front: L C R, Side: L R, LFE
Sampling rate : 48.0 kHz
Frame rate : 93.750 FPS (512 SPF)
Bit depth : 24 bits
Compression mode : Lossless / Lossy
Stream size : 4.33 GiB (9%)
Title : [VO] DTS-HD MA 7.1 @ 5013 kbps (A. Gorchakov)
Language : Russian
Default : No
Forced : No
Audio #5
ID : 6
Format : DTS
Format/Info : Digital Theater Systems
Format profile : MA / Core
Mode : 16
Format settings, Endianness : Big
Codec ID : A_DTS
Duration : 2 h 3 min
Bit rate mode : Variable / Constant
Bit rate : 5 011 kb/s / 1 509 kb/s
Channel(s) : 8 channels / 6 channels
Channel positions : Front: L C R, Side: L R, Back: L R, LFE / Front: L C R, Side: L R, LFE
Sampling rate : 48.0 kHz
Frame rate : 93.750 FPS (512 SPF)
Bit depth : 24 bits
Compression mode : Lossless / Lossy
Stream size : 4.33 GiB (9%)
Title : [VO] DTS-HD MA 7.1 @ 5011 kbps (Y. Serbin)
Language : Russian
Default : No
Forced : No
Audio #6
ID : 7
Format : DTS
Format/Info : Digital Theater Systems
Format profile : MA / Core
Mode : 16
Format settings, Endianness : Big
Codec ID : A_DTS
Duration : 2 h 3 min
Bit rate mode : Variable / Constant
Bit rate : 4 987 kb/s / 1 509 kb/s
Channel(s) : 8 channels / 6 channels
Channel positions : Front: L C R, Side: L R, Back: L R, LFE / Front: L C R, Side: L R, LFE
Sampling rate : 48.0 kHz
Frame rate : 93.750 FPS (512 SPF)
Bit depth : 24 bits
Compression mode : Lossless / Lossy
Stream size : 4.31 GiB (9%)
Title : [ORIGINAL] DTS-HD MA 7.1 @ 4987 kbps
Language : English
Default : No
Forced : No
Audio #7
ID : 8
Format : AC-3
Format/Info : Audio Coding 3
Format settings, Endianness : Big
Codec ID : A_AC3
Duration : 2 h 3 min
Bit rate mode : Constant
Bit rate : 224 kb/s
Channel(s) : 2 channels
Channel positions : Front: L R
Sampling rate : 48.0 kHz
Frame rate : 31.250 FPS (1536 SPF)
Bit depth : 16 bits
Compression mode : Lossy
Stream size : 198 MiB (0%)
Title : [Commentary#1] Ridley Scott
Language : English
Service kind : Complete Main
Default : No
Forced : No
Audio #8
ID : 9
Format : AC-3
Format/Info : Audio Coding 3
Format settings, Endianness : Big
Codec ID : A_AC3
Duration : 2 h 3 min
Bit rate mode : Constant
Bit rate : 224 kb/s
Channel(s) : 2 channels
Channel positions : Front: L R
Sampling rate : 48.0 kHz
Frame rate : 31.250 FPS (1536 SPF)
Bit depth : 16 bits
Compression mode : Lossy
Stream size : 198 MiB (0%)
Title : [Commentary#2] John Spates
Language : English
Service kind : Complete Main
Default : No
Forced : No
Text #1
ID : 10
Format : UTF-8
Codec ID : S_TEXT/UTF8
Codec ID/Info : UTF-8 Plain Text
Duration : 1 h 51 min
Bit rate : 71 b/s
Count of elements : 1364
Stream size : 58.3 KiB (0%)
Title : Full-length
Language : Russian
Default : No
Forced : No
Text #2
ID : 11
Format : UTF-8
Codec ID : S_TEXT/UTF8
Codec ID/Info : UTF-8 Plain Text
Duration : 1 h 51 min
Bit rate : 72 b/s
Count of elements : 1350
Stream size : 59.0 KiB (0%)
Title : Full-length
Language : Ukrainian
Default : No
Forced : No
Text #3
ID : 12
Format : PGS
Codec ID : S_HDMV/PGS
Codec ID/Info : Picture based subtitle format used on BDs/HD-DVDs
Duration : 1 h 59 min
Bit rate : 28.6 kb/s
Count of elements : 3206
Stream size : 24.5 MiB (0%)
Title : Full-length
Language : English
Default : No
Forced : No
Text #4
ID : 13
Format : UTF-8
Codec ID : S_TEXT/UTF8
Codec ID/Info : UTF-8 Plain Text
Duration : 2 h 0 min
Bit rate : 144 b/s
Count of elements : 1892
Stream size : 127 KiB (0%)
Title : [Commentary#1] Ridley Scott
Language : Russian
Default : No
Forced : No
Text #5
ID : 14
Format : UTF-8
Codec ID : S_TEXT/UTF8
Codec ID/Info : UTF-8 Plain Text
Duration : 1 h 58 min
Bit rate : 177 b/s
Count of elements : 2053
Stream size : 154 KiB (0%)
Title : [Commentary#2] John Spates
Language : Russian
Default : No
Forced : No
Menu
00:00:00.000 : en:Chapter 1
00:05:13.146 : en:Chapter 2
00:07:44.881 : en:Chapter 3
00:11:31.524 : en:Chapter 4
00:15:09.783 : en:Chapter 5
00:20:04.912 : en:Chapter 6
00:22:32.809 : en:Chapter 7
00:27:43.119 : en:Chapter 8
00:31:57.832 : en:Chapter 9
00:34:10.840 : en:Chapter 10
00:37:53.229 : en:Chapter 11
00:40:45.359 : en:Chapter 12
00:45:49.329 : en:Chapter 13
00:48:47.925 : en:Chapter 14
00:50:23.061 : en:Chapter 15
00:53:56.399 : en:Chapter 16
00:56:32.222 : en:Chapter 17
00:59:31.609 : en:Chapter 18
01:01:29.185 : en:Chapter 19
01:04:17.562 : en:Chapter 20
01:06:01.457 : en:Chapter 21
01:08:57.883 : en:Chapter 22
01:11:13.519 : en:Chapter 23
01:15:10.631 : en:Chapter 24
01:17:06.038 : en:Chapter 25
01:25:02.305 : en:Chapter 26
01:27:09.349 : en:Chapter 27
01:30:10.363 : en:Chapter 28
01:32:43.724 : en:Chapter 29
01:35:23.134 : en:Chapter 30
01:37:46.861 : en:Chapter 31
01:40:46.373 : en:Chapter 32
01:43:46.220 : en:Chapter 33
01:48:28.793 : en:Chapter 34
01:52:08.096 : en:Chapter 35
01:58:06.287 : en:Chapter 36

Скриншоты:
Автор Bot
Категория Зарубежные фильмы
InfoHash 620625B6DEF9187A772C7D39DCF2E7DAE54B82E3
Файлы (1)
Показать файлы
Трекера
Показать трекера
Похожие раздачи

    Нет комментариев

Войти на сайт

Статистика

  • Всего торрентов: 86190
  • Объёмом: 510.9 Тб
  • Сидов: 2599508
  • Личеров: 164263