Все раздачи Раздачи по тегам Правила Информация Контакты

Улики / Evidence (2013) HDRip-AVC | D

Улики / Evidence (2013) HDRip-AVC | D

Информация о фильме
Название: Улики
Оригинальное название: Evidence
Год выпуска: 2013
Жанр: Триллер, ужасы
Режиссер: Олатунде Осунсанми
В ролях: Рада Митчелл, Стивен Мойер, Торри ДеВито, Нолан Фанк, Дейл Дикки, Гарри Дж. Ленникс, Кэйтлин Стэйси, Амл Амин, Джон Хеймс Ньютон, Светлана Меткина
О фильме :
В автобусе, направлявшемся в Лас-Вегас, совершено жестокое убийство. На месте преступления — ни одного уцелевшего. Только несколько трупов и хаотичный набор мобильных телефонов, карманных видеокамер и других устройств, оставшихся от потерпевших. Детектив, которому поручено расследование, с помощью сохранившихся записей пытается восстановить цепь загадочных событий, приведших к трагедии.

Страна: США
Студия: Bold Films, Marc Platt Productions
Продолжительность: 01:33:59
Перевод: Профессиональный (дублированный) [Лицензия]
Файл
Формат: MKV
Качество: HDRip-AVC
Видео: MPEG-4 AVC, 768x320, ~ 1032 Кбит/с
Аудио: AAC-LC, 2 ch, ~ 76 Кбит/с
Субтитры: Русские, английские
MI
Общее
Уникальный идентификатор : 215565032280497847463253296972700623493 (0xA22C50A7FB0B64CA819AA195D2BCA285)
Полное имя : D:MOVIESEvidence.2013.ExKinoRay.mkv
Формат : Matroska
Версия формата : Version 4 / Version 2
Размер файла : 746 Мбайт
Продолжительность : 1 ч. 33 м.
Общий поток : 1110 Кбит/сек
Дата кодирования : UTC 2017-11-13 17:01:45
Программа кодирования : mkvmerge v15.0.0 ('Duel with the Devil') 64-bit
Библиотека кодирования : libebml v1.3.5 + libmatroska v1.4.5
Видео
Идентификатор : 1
Формат : AVC
Формат/Информация : Advanced Video Codec
Профиль формата : High@L4.1
Параметр CABAC формата : Да
Параметр RefFrames формата : 10 кадров
Идентификатор кодека : V_MPEG4/ISO/AVC
Продолжительность : 1 ч. 33 м.
Битрейт : 1032 Кбит/сек
Ширина : 768 пикселей
Высота : 320 пикселей
Соотношение сторон : 2,40:1
Режим частоты кадров : Постоянный
Частота кадров : 23,976 (24000/1001) кадра/сек
Цветовое пространство : YUV
Субдискретизация насыщенности : 4:2:0
Битовая глубина : 8 бит
Тип развёртки : Прогрессивная
Бит/(Пиксели*Кадры) : 0.175
Размер потока : 693 Мбайт (93%)
Библиотека кодирования : x264 core 152 r2851kMod ba24899
Настройки программы : cabac=1 / ref=10 / deblock=1:-3:-3 / analyse=0x3:0x133 / me=umh / subme=11 / psy=1 / fade_compensate=0.00 / psy_rd=1.00:0.10 / mixed_ref=1 / me_range=32 / chroma_me=1 / trellis=2 / 8x8dct=1 / cqm=0 / deadzone=21,11 / fast_pskip=0 / chroma_qp_offset=-3 / threads=6 / lookahead_threads=1 / sliced_threads=0 / nr=0 / decimate=0 / interlaced=0 / bluray_compat=0 / constrained_intra=0 / bframes=10 / b_pyramid=2 / b_adapt=2 / b_bias=0 / direct=3 / weightb=1 / open_gop=0 / weightp=2 / keyint=240 / keyint_min=23 / scenecut=40 / intra_refresh=0 / rc_lookahead=40 / rc=2pass / mbtree=1 / bitrate=1032 / ratetol=1.0 / qcomp=0.60 / qpmin=0 / qpmax=69 / qpstep=4 / cplxblur=20.0 / qblur=0.5 / vbv_maxrate=50000 / vbv_bufsize=62500 / nal_hrd=none / filler=0 / ip_ratio=1.40 / aq=3:1.00
Default : Да
Forced : Нет
Аудио
Идентификатор : 2
Формат : AAC
Формат/Информация : Advanced Audio Codec
Профиль формата : LC
Идентификатор кодека : A_AAC
Продолжительность : 1 ч. 33 м.
Битрейт : 76,0 Кбит/сек
Каналы : 2 канала
Расположение каналов : Front: L R
Частота : 48,0 КГц
Частота кадров : 46,875 кадров/сек (1024 SPF)
Метод сжатия : С потерями
Задержка видео : 9 мс.
Размер потока : 51,1 Мбайт (7%)
Default : Да
Forced : Нет
Текст #1
Идентификатор : 3
Формат : UTF-8
Идентификатор кодека : S_TEXT/UTF8
Идентификатор кодека/Информация : UTF-8 Plain Text
Продолжительность : 1 ч. 30 м.
Битрейт : 79 бит/сек
ElementCount : 1097
Размер потока : 52,6 Кбайт (0%)
Язык : Russian
Default : Нет
Forced : Нет
Текст #2
Идентификатор : 4
Формат : UTF-8
Идентификатор кодека : S_TEXT/UTF8
Идентификатор кодека/Информация : UTF-8 Plain Text
Продолжительность : 1 ч. 25 м.
Битрейт : 62 бит/сек
ElementCount : 1184
Размер потока : 38,7 Кбайт (0%)
Язык : English
Default : Нет
Forced : Нет
Меню
00:00:00.000 : en:Chapter 01
00:07:52.471 : en:Chapter 02
00:14:26.365 : en:Chapter 03
00:23:23.402 : en:Chapter 04
00:31:06.864 : en:Chapter 05
00:40:30.970 : en:Chapter 06
00:47:58.792 : en:Chapter 07
00:54:38.858 : en:Chapter 08
01:01:29.268 : en:Chapter 09
01:07:55.738 : en:Chapter 10
01:19:25.218 : en:Chapter 11
01:28:39.314 : en:Chapter 12
Скриншоты


Релиз от:
Автор Bot
Категория Зарубежные фильмы
InfoHash 9CC1627A972FBF83BE1DCE88616E07F96AF8FC94
Файлы (1)
Показать файлы
Трекера
Показать трекера
Похожие раздачи
Название Добавлен Размер Сид Лич
Улики / Evidence (2013) BDRip-AVC | Лицензия 22/12/2017 2.2 Гб 2 0

    Нет комментариев

Войти на сайт

Статистика

  • Всего торрентов: 86190
  • Объёмом: 510.9 Тб
  • Сидов: 2599437
  • Личеров: 164110