Все раздачи Раздачи по тегам Правила Информация Контакты

Ветреная река / Wind River (2017) BDRip-AVC | iTunes

Ветреная река / Wind River (2017) BDRip-AVC | iTunes


Группа New-Team ВКонтакте
Подписывайтесь так же на мою группу ВКонтакте stalkerok | AVC рипы
Ссылка в группе New-Team
Присоединяйтесь!

Ветреная река
Wind River
«Нет ничего сложнее, чем выйти на след правды»



Страна: Великобритания, Канада, США
Жанр: боевик, триллер, криминал, детектив
Год выпуска: 2017
Продолжительность: 01:46:47
Перевод: Профессиональный (полное дублирование) [iTunes]
Субтитры: русские (полные), английские (полные, SDH, SDH цветные)
Оригинальная аудиодорожка: английский
Режиссер: Тейлор Шеридан / Taylor Sheridan
В ролях: Джереми Реннер, Элизабет Олсен, Джон Бернтал, Келси Эсбиль, Джулия Джонс, Тео Брионес, Апесанахкват, Грэм Грин, Танту Кардинал, Эрик Ланж, Джил Бирмингем, Алтея Сэм
Описание:
В пустыне на территории индейской резервации «Ветреная река» егерь Кори Ламберт находит изувеченное тело молодой девушки. Опытный охотник с трагическим прошлым, он берется помочь в расследовании этого дела агенту ФБР Джейн Бэннер, которая оказывается в мире, полном загадок и насилия. Но смогут ли они противостоять зловещим силам этих мест, где сама природа пропитана горечью и жаждой мщения?..

Релиз:
Автор рипа: stalkerok
Сэмпл
Качество видео: BDRip-AVC [Wind River (2017) Blu-ray Disc -BLUEBIRD]
Формат видео: MKV
Видео кодек: AVC
Аудио кодек: AC3
Видео: 3077 Кбит/сек, 1152*482 (2,40:1), в 23,976 (24000/1001) кадра/сек, AVC
Аудио #1: русский, 384 Кбит/сек, 48 КГц, 5.1, AC3
Аудио #2: английский, 448 Кбит/сек, 48 КГц, 5.1, AC3
Навигация по главам: есть


x264/MediaInfo

x264 [info]: frame I:1107 Avg QP:16.59 size: 72775
x264 [info]: frame P:28980 Avg QP:17.80 size: 30568
x264 [info]: frame B:123530 Avg QP:19.61 size: 12123
Общее
Уникальный идентификатор : 230986279201328484762287395723488111320 (0xADC656D4DECB927897ED7D349EA1AAD8)
Полное имя : M:!Rips2017Wind River (2017)Wind.River.2017.BDRip-AVC.RUS.ENG.stalkerok.new-team.mkv
Формат : Matroska
Версия формата : Version 4 / Version 2
Размер файла : 2,92 Гбайт
Продолжительность : 1 ч. 46 м.
Общий поток : 3911 Кбит/сек
Название фильма : Wind River (2017) (Rip by stalkerok)
Дата кодирования : UTC 2017-11-13 15:43:10
Программа кодирования : mkvmerge v8.6.1 ('Flying') 64bit
Библиотека кодирования : libebml v1.3.3 + libmatroska v1.4.4
Видео
Идентификатор : 1
Формат : AVC
Формат/Информация : Advanced Video Codec
Профиль формата : High@L4.1
Параметр CABAC формата : Да
Параметр ReFrames формата : 13 кадров
Идентификатор кодека : V_MPEG4/ISO/AVC
Продолжительность : 1 ч. 46 м.
Битрейт : 3077 Кбит/сек
Ширина : 1152 пикселя
Высота : 482 пикселя
Соотношение сторон : 2,40:1
Режим частоты кадров : Постоянный
Частота кадров : 23,976 (24000/1001) кадра/сек
Цветовое пространство : YUV
Субдискретизация насыщенности : 4:2:0
Битовая глубина : 8 бит
Тип развёртки : Прогрессивная
Бит/(Пиксели*Кадры) : 0.231
Размер потока : 2,29 Гбайт (79%)
Заголовок : Wind River (2017) (Rip by stalkerok)
Библиотека кодирования : x264 core 152 r2851kMod ba24899
Настройки программы : cabac=1 / ref=13 / deblock=1:-3:-2 / analyse=0x3:0x133 / me=umh / subme=11 / psy=1 / fade_compensate=0.00 / psy_rd=1.00:0.00 / mixed_ref=1 / me_range=32 / chroma_me=1 / trellis=2 / 8x8dct=1 / cqm=0 / deadzone=21,11 / fast_pskip=0 / chroma_qp_offset=-2 / threads=12 / lookahead_threads=3 / sliced_threads=0 / nr=0 / decimate=1 / interlaced=0 / bluray_compat=0 / constrained_intra=0 / bframes=13 / b_pyramid=2 / b_adapt=2 / b_bias=0 / direct=3 / weightb=1 / open_gop=0 / weightp=2 / keyint=240 / keyint_min=23 / scenecut=40 / intra_refresh=0 / rc_lookahead=60 / rc=crf / mbtree=0 / crf=18.2000 / qcomp=0.65 / qpmin=0 / qpmax=69 / qpstep=4 / vbv_maxrate=50000 / vbv_bufsize=62500 / crf_max=0.0 / nal_hrd=none / filler=0 / ip_ratio=1.40 / pb_ratio=1.30 / aq=3:0.80 / zones=144063,153616,q=32
Default : Да
Forced : Нет
Аудио #1
Идентификатор : 2
Формат : AC-3
Формат/Информация : Audio Coding 3
Расширение режима : CM (complete main)
Параметр Endianness формата : Big
Идентификатор кодека : A_AC3
Продолжительность : 1 ч. 46 м.
Вид битрейта : Постоянный
Битрейт : 384 Кбит/сек
Каналы : 6 каналов
Расположение каналов : Front: L C R, Side: L R, LFE
Частота : 48,0 КГц
Частота кадров : 31,250 кадров/сек (1536 spf)
Метод сжатия : С потерями
Размер потока : 293 Мбайт (10%)
Язык : Russian
Default : Да
Forced : Нет
Аудио #2
Идентификатор : 3
Формат : AC-3
Формат/Информация : Audio Coding 3
Расширение режима : CM (complete main)
Параметр Endianness формата : Big
Идентификатор кодека : A_AC3
Продолжительность : 1 ч. 46 м.
Вид битрейта : Постоянный
Битрейт : 448 Кбит/сек
Каналы : 6 каналов
Расположение каналов : Front: L C R, Side: L R, LFE
Частота : 48,0 КГц
Частота кадров : 31,250 кадров/сек (1536 spf)
Метод сжатия : С потерями
Размер потока : 342 Мбайт (11%)
Язык : English
Default : Нет
Forced : Нет
Текст #1
Идентификатор : 4
Формат : UTF-8
Идентификатор кодека : S_TEXT/UTF8
Идентификатор кодека/Информация : UTF-8 Plain Text
Продолжительность : 1 ч. 43 м.
Битрейт : 89 бит/сек
Count of elements : 1251
Размер потока : 67,4 Кбайт (0%)
Язык : Russian
Default : Нет
Forced : Нет
Текст #2
Идентификатор : 5
Формат : UTF-8
Идентификатор кодека : S_TEXT/UTF8
Идентификатор кодека/Информация : UTF-8 Plain Text
Продолжительность : 1 ч. 43 м.
Битрейт : 55 бит/сек
Count of elements : 1457
Размер потока : 41,8 Кбайт (0%)
Язык : English
Default : Нет
Forced : Нет
Текст #3
Идентификатор : 6
Формат : UTF-8
Идентификатор кодека : S_TEXT/UTF8
Идентификатор кодека/Информация : UTF-8 Plain Text
Продолжительность : 1 ч. 46 м.
Битрейт : 63 бит/сек
Count of elements : 1817
Размер потока : 49,3 Кбайт (0%)
Заголовок : SDH
Язык : English
Default : Нет
Forced : Нет
Текст #4
Идентификатор : 7
Формат : UTF-8
Идентификатор кодека : S_TEXT/UTF8
Идентификатор кодека/Информация : UTF-8 Plain Text
Продолжительность : 1 ч. 43 м.
Битрейт : 128 бит/сек
Count of elements : 1809
Размер потока : 97,5 Кбайт (0%)
Заголовок : SDH Colored
Язык : English
Default : Нет
Forced : Нет
Меню
00:00:00.000 : en:Chapter 1
00:06:01.694 : en:Chapter 2
00:10:42.433 : en:Chapter 3
00:14:55.394 : en:Chapter 4
00:19:18.740 : en:Chapter 5
00:25:52.342 : en:Chapter 6
00:32:02.921 : en:Chapter 7
00:37:13.481 : en:Chapter 8
00:43:34.527 : en:Chapter 9
00:52:17.259 : en:Chapter 10
01:00:22.535 : en:Chapter 11
01:07:09.483 : en:Chapter 12
01:10:57.920 : en:Chapter 13
01:18:39.589 : en:Chapter 14
01:23:46.104 : en:Chapter 15
01:31:00.537 : en:Chapter 16
01:36:46.591 : en:Chapter 17
01:39:41.642 : en:Chapter 18



Автор Bot
Категория Зарубежные фильмы
InfoHash 038A1BC75BBBB907144C4C74859F3872810D805C
Файлы (1)
Показать файлы
Трекера
Показать трекера
Похожие раздачи

    Нет комментариев

Войти на сайт

Статистика

  • Всего торрентов: 86487
  • Объёмом: 512.4 Тб
  • Сидов: 2677866
  • Личеров: 177024